Поиск

2016 Taksim Trio - at Sarajevo Jazz Fest [HDTV 1080i]

2016 Taksim Trio - at Sarajevo Jazz Fest [HDTV 1080i]
Дата проведения концерта (записи):
3 ноября 2016
Место проведения:
Sarajevo Jazz Festival
Главы (разбивка по трекам):
нет
Качество:
HDTV
Контейнер:
MP4
Состав:
  • Husnu Senlendirici - clarinet and balaban
  • Ismail Tuncbilek - balama
  • Aytas Dogan - kanun
Видео:
AVC (h.264) / 1920x1080 / interlaced / 16:9 / 4 462 kbps / 25.00 fps
Аудио#1:
AAC LC / 256kbps / constant / 48kHz / 2ch stereo
Описание:

Taksim Trio, турецкий ансамбль виртуозных музыкантов, представит свой текущий альбом на 20-м фестивале Jazz Fest Sarajevo и отправит публику в музыкальное приключение, состоящее из привлекательного сочетания их обычного репертуара и фламенко.

Это трио открыло 16-й фестиваль Jazz Fest четыре года назад, впервые представив себя в этой части света. Затем последовало множество выступлений, и их новая музыкальная одиссея привела их в Андалусию, что придало их музыке совершенно новое измерение.

Хусну Сенлендиричи играет на кларнете и балабане, Исмаил Тунчбилек — на баламе, а Айтас Доган — на кануне. Вместе они создают впечатляющие музыкальные ландшафты с потрясающе виртуозными сольными партиями, привнося восточное звучание, современное и древнее одновременно.

Билеты на концерт, который состоится 03 ноября в Bosanski kulturni centar, можно приобрести по предпродажным ценам по этой ссылке или забронировать по этой ссылке. Билет на Taksim Trio также действителен для участия в концерте Inside Out, дуэта трубача Маркуса Штокхаузена и пианиста Флориана Вебера, который состоится в тот же день в BKC.

https://jazzfest.ba/en/2016/09/28/taksim-trio-po-drugi-put-na-jazz-festu/

Дополнительная информация:

This video is available on our DC++ hub: dc.pro-jazz.com
Это видео доступно на нашем DC++ хабе: dc.pro-jazz.com

Отчёт DVDInfo/MediaInfo/BDInfo
Общее
Полное имя : \\Taksim Trio\2016 Taksim Trio - at Sarajevo Jazz Fest [HDTV 1080i].mp4
Формат : MPEG-4
Профиль формата : Base Media
Идентификатор кодека : isom (isom/iso2/avc1/mp41)
Размер файла : 2,79 Гбайт
Продолжительность : 1 ч. 24 м.
Общий поток : 4 730 Кбит/сек
Частота кадров : 50,000 кадров/сек
Программа кодирования : VideoReDo (Lavf57.71.100)

Видео
Идентификатор : 1
Формат : AVC
Формат/Информация : Advanced Video Codec
Профиль формата : High@L4
Настройки формата : CABAC / 4 Ref Frames
Параметр CABAC формата : Да
Параметр RefFrames формата : 4 кадра
Идентификатор кодека : avc1
Идентификатор кодека/Информация : Advanced Video Coding
Продолжительность : 1 ч. 24 м.
Битрейт : 4 462 Кбит/сек
Ширина : 1 920 пикселей
Высота : 1 080 пикселей
Соотношение сторон : 16:9
Описание активного формата : Full frame 16:9 image
Режим частоты кадров : Постоянный
Частота кадров : 50,000 кадров/сек
Частота кадров в оригинале : 25,000 кадров/сек
Стандарт вещания : Component
Цветовое пространство : YUV
Субдискретизация насыщенности : 4:2:0
Битовая глубина : 8 бит
Тип развёртки : Чересстрочная
Метод сохранения типа развёртки : Раздельные поля
Порядок развёртки : Верхнее поле первое
Бит/(Пиксели*Кадры) : 0.043
Размер потока : 2,64 Гбайт (94%)
Цветовой диапазон : Limited
Основные цвета : BT.709
Характеристики трансфера : BT.709
Коэффициенты матрицы : BT.709
Menus : 3
Codec configuration box : avcC

Аудио
Идентификатор : 2
Формат : MPEG Audio
Версия формата : Version 1
Профиль формата : Layer 2
Идентификатор кодека : mp4a-6B
Продолжительность : 1 ч. 24 м.
Duration_LastFrame : -24 мс.
Вид битрейта : Постоянный
Битрейт : 256 Кбит/сек
Каналы : 2 канала
Частота : 48,0 КГц
Метод сжатия : С потерями
Размер потока : 155 Мбайт (5%)
Язык : English
Default : Да
Alternate group : 1
Menus : 3

Меню #1
Идентификатор : 3
Формат : txet
Идентификатор кодека : txet
Продолжительность : 1 ч. 24 м.
Язык : English
Menu For : 1,2
Duration_LastFrame : -24240

Меню #2
00:00:00.000 : Chapter 1
00:05:00.000 : Chapter 2
00:10:00.000 : Chapter 3
00:15:00.000 : Chapter 4
00:20:00.000 : Chapter 5
00:25:00.000 : Chapter 6
00:30:00.000 : Chapter 7
00:35:00.000 : Chapter 8
00:40:00.000 : Chapter 9
00:45:00.000 : Chapter 10
00:50:00.000 : Chapter 11
00:55:00.000 : Chapter 12
01:00:00.000 : Chapter 13
01:05:00.000 : Chapter 14
01:10:00.000 : Chapter 15
01:15:00.000 : Chapter 16
01:20:00.000 : Chapter 17
Any questions - support@pro-jazz.com
To become a power user - read FAQ.
150
Нет комментариев. Ваш будет первым!