Поиск

2016 Meshel Ndegeocello - at Banlieues Bleues [HDTV 1080i]

2016 Meshel Ndegeocello - at Banlieues Bleues [HDTV 1080i]
Стиль:
Дата проведения концерта (записи):
12 апреля 2016
Место проведения:
Banlieues Bleues Jazz Festival
Главы (разбивка по трекам):
нет
Качество:
HDTV
Контейнер:
MP4
Треклист:

01. Please Don't Let Me Be Misunderstood
02. Folie' a Deux
03. Living In Vain
04. Suzanne
05. Forget My Name
06. Tom
07. Rapid Fire
08. See Line Woman
09. Good Day Bad
10. Grace

Состав:
  • Meshell Ndegeocello, bass and voice
  • Chris Bruce, guitar
  • Jebin Bruni, keyboards
  • Abraham Rounds, drums
Видео:
AVC (h.264) / 1920x1080 / interlaced / 16:9 / 3 942 kbps / 25.00 fps
Аудио#1:
AAC LC / 256kbps / variable / 48kHz / 2ch stereo
Описание:

Мешелль Ндегеочелло вернула к жизни музыку соул на концерте в рамках фестиваля Banlieues в 2016 году. Афроамериканская певица считается основательницей нео-соула, а также 10-кратной номинанткой на премию "Грэмми". Здесь к ней присоединились гитарист Крис Брюс, пианист Джебин Бруни и барабанщик Абрахам Раундс, которые дополняют величие Ндегечелло своей уникальной музыкальностью.

В интервью Клаудрены Н. Харольд для PopMatters Ндегечелло так описывает свое сотрудничество с Брюсом: "Он настолько же потрясающий человек, насколько и потрясающий музыкант. Я считаю, что для артиста очень важно иметь рядом человека, который может расширить границы твоих возможностей, который является хорошей поддержкой для артиста и открыт для новых идей. Все это я нашел в нем...".

Мать нео-соула, постоянно обновляющая себя со времен альбома Plantation Lullabies 1993 года, Мешелл Ндегеочелло остается редкой птицей на американском музыкальном ландшафте, вдохновляя Билалов и Соланжей этого мира на игру с ее затененной фразировкой.

Басистка, певица и женщина чувственного, минималистичного, катарсического фанка, играющая со всеми нюансами Великой Черной Музыки, с кьяроскуро оттенков своего голоса, она выдает концентрированный грув на фоне навязчиво преследующих искажений и паттернов.

На 33-м ежегодном фестивале Banlieues Bleues она представляет репертуар альбома Comet, Come to Me (2014), включая Forget My Name, не забывая при этом о пронзительных каверах на песни своих культовых фаворитов, таких как Нина Симоне и Леонард Коэн. Незаменимый концерт.

Дополнительная информация:

This video is available on our DC++ hub: dc.pro-jazz.com
Это видео доступно на нашем DC++ хабе: dc.pro-jazz.com

Отчёт DVDInfo/MediaInfo/BDInfo
Общее
Полное имя : \\2016 Meshel Ndegeocello - Live At Banlieues Bleues [HDTV 1080i].mp4
Формат : MPEG-4
Профиль формата : Base Media
Идентификатор кодека : isom (isom/iso2/avc1/mp41)
Размер файла : 1,73 Гбайт
Продолжительность : 58 м. 53 с.
Режим общего битрейта : Переменный
Общий поток : 4 204 Кбит/сек
Частота кадров : 50,000 кадров/сек
Программа кодирования : VideoReDo (Lavf57.71.100)

Видео
Идентификатор : 1
Формат : AVC
Формат/Информация : Advanced Video Codec
Профиль формата : High@L4
Настройки формата : CABAC / 4 Ref Frames
Параметр CABAC формата : Да
Параметр RefFrames формата : 4 кадра
Параметр GOP формата : M=4, N=28
Идентификатор кодека : avc1
Идентификатор кодека/Информация : Advanced Video Coding
Продолжительность : 58 м. 49 с.
Битрейт : 3 942 Кбит/сек
Ширина : 1 920 пикселей
Высота : 1 080 пикселей
Соотношение сторон : 16:9
Описание активного формата : Full frame 16:9 image
Режим частоты кадров : Постоянный
Частота кадров : 50,000 кадров/сек
Частота кадров в оригинале : 25,000 кадров/сек
Стандарт вещания : Component
Цветовое пространство : YUV
Субдискретизация насыщенности : 4:2:0
Битовая глубина : 8 бит
Тип развёртки : Чересстрочная
Метод сохранения типа развёртки : Раздельные поля
Порядок развёртки : Верхнее поле первое
Бит/(Пиксели*Кадры) : 0.038
Размер потока : 1,62 Гбайт (94%)
Цветовой диапазон : Limited
Основные цвета : BT.709
Характеристики трансфера : BT.709
Коэффициенты матрицы : BT.709
Menus : 3
Codec configuration box : avcC

Аудио
Идентификатор : 2
Формат : AAC LC
Формат/Информация : Advanced Audio Codec Low Complexity
Идентификатор кодека : mp4a-40-2
Продолжительность : 58 м. 49 с.
Duration_LastFrame : -21 мс.
Вид битрейта : Переменный
Битрейт : 253 Кбит/сек
Максимальный битрейт : 256 Кбит/сек
Каналы : 2 канала
Channel layout : L R
Частота : 48,0 КГц
Частота кадров : 46,875 кадров/сек (1024 SPF)
Метод сжатия : С потерями
Размер потока : 107 Мбайт (6%)
Язык : English
Default : Да
Alternate group : 1
Menus : 3

Меню #1
Идентификатор : 3
Формат : txet
Идентификатор кодека : txet
Продолжительность : 58 м. 53 с.
Язык : English
Menu For : 1,2
Duration_LastFrame : -66080

Меню #2
00:00:00.000 : Chapter 1
00:05:00.000 : Chapter 2
00:10:00.000 : Chapter 3
00:15:00.000 : Chapter 4
00:20:00.000 : Chapter 5
00:25:00.000 : Chapter 6
00:30:00.000 : Chapter 7
00:35:00.000 : Chapter 8
00:40:00.000 : Chapter 9
00:45:00.000 : Chapter 10
00:50:00.000 : Chapter 11
00:55:00.000 : Chapter 12
Any questions - projazzclub@gmail.com
369
Нет комментариев. Ваш будет первым!