Поиск

2016 Magnetic Ensemble - Victory At D'Jazz Nevers Festival [HDTV 1080i]

2016 Magnetic Ensemble - Victory At D'Jazz Nevers Festival [HDTV 1080i]
Главы (разбивка по трекам):
нет
Состав:
  • ANTONIN LEYMARIE - DIRECTION ARTISTIQUE, COMPOSITION, BATTERIE
  • BENJAMIN FLAMENT - PERCUSSIONS MÉTALLIQUES TRAITÉES, VIBRAPHONE
  • SYLVAIN LEMÊTRE - PERCUSSIONS DIGITALES ET ORCHESTRALES
  • LINDA OLAH - CHANT
  • FABRIZIO RAT - PIANO PRÉPARÉ
  • ADRIEN SPIRLI - SYNTHÉTISEUR BASSE
  • ADRIAN ‘ALADIN’ BOURGET - SOUND DESIGNER
  • THOMAS VEYSSIÈRE - SCÉNOGRAPHIE, LUMIÈRE
  • INVITÉ : FRANÇOIS CORNELOUP - SAXOPHONE
Видео:
AVC,1920*1080i (16:9), 4695kbps, 25fps
Аудио#1:
MPEG2, 256kbps, 48kHz, 2ch
Дополнительная информация:
Отчёт DVDInfo/MediaInfo/BDInfo
Общее
Полное имя : \\2016 Magnetic Ensemble - Victory At D'Jazz Nevers Festival [1080i] .mp4
Формат : MPEG-4
Профиль формата : Base Media
Идентификатор кодека : isom (isom/iso2/avc1/mp41)
Размер файла : 1,72 Гбайт
Продолжительность : 49 м. 32 с.
Общий поток : 4957 Кбит/сек
Программа кодирования : Lavf54.63.104

Видео
Идентификатор : 1
Формат : AVC
Формат/Информация : Advanced Video Codec
Профиль формата : High@L4
Настройки формата : CABAC / 4 Ref Frames
Параметр CABAC формата : Да
Параметр RefFrames формата : 4 кадра
Идентификатор кодека : avc1
Идентификатор кодека/Информация : Advanced Video Coding
Продолжительность : 49 м. 32 с.
Битрейт : 4695 Кбит/сек
Ширина : 1920 пикселей
Высота : 1080 пикселей
Соотношение сторон : 16:9
Режим частоты кадров : Постоянный
Частота кадров : 25,000 кадров/сек
Стандарт вещания : Component
Цветовое пространство : YUV
Субдискретизация насыщенности : 4:2:0
Битовая глубина : 8 бит
Тип развёртки : Чересстрочная
Метод сохранения типа развёртки : Раздельные поля
Порядок развёртки : Верхнее поле первое
Бит/(Пиксели*Кадры) : 0.091
Размер потока : 1,62 Гбайт (95%)
Цветовой диапазон : Limited
Основные цвета : BT.709
Характеристики трансфера : BT.709
Коэффициенты матрицы : BT.709
Codec configuration box : avcC

Аудио
Идентификатор : 2
Формат : MPEG Audio
Версия формата : Version 1
Профиль формата : Layer 2
Идентификатор кодека : mp4a-6B
Продолжительность : 49 м. 32 с.
Duration_LastFrame : -24 мс.
Вид битрейта : Постоянный
Битрейт : 256 Кбит/сек
Каналы : 2 канала
Частота : 48,0 КГц
Метод сжатия : С потерями
Размер потока : 90,7 Мбайт (5%)
Язык : Russian
Default : Да
AlternateGroup/String : 1
Скриншоты видео
2016 Magnetic Ensemble - Victory At D'Jazz Nevers Festival [HDTV 1080i]  02016 Magnetic Ensemble - Victory At D'Jazz Nevers Festival [HDTV 1080i]  12016 Magnetic Ensemble - Victory At D'Jazz Nevers Festival [HDTV 1080i]  22016 Magnetic Ensemble - Victory At D'Jazz Nevers Festival [HDTV 1080i]  32016 Magnetic Ensemble - Victory At D'Jazz Nevers Festival [HDTV 1080i]  4
Download available for power users only.
463
Нет комментариев. Ваш будет первым!