Поиск

2016 Kyle Eastwood Quintet - Jazz In Marciac [SD]

2016 Kyle Eastwood Quintet - Jazz In Marciac [SD]
Дата проведения концерта (записи):
5 августа 2016
Место проведения:
Marciac, France
Время звучания:
00:59:01
Качество:
SATRip
Контейнер:
TS
Состав:
  • Stefano Di Battista saxophone
  • Brandon Allen saxophone
  • Quentin Collins trompette
  • Andrew McCormack piano
  • Kyle Eastwood contrebasse
  • Chris Higginbottom batterie
Видео:
MPEG-TS, 704*576 (16:9), 1763kbps, 25fps
Аудио#1:
MPEG2, 256kbps, 48kHz, 2ch
Источник:
собственная запись
Отчёт DVDInfo/MediaInfo/BDInfo
Общее
Идентификатор : 1 (0x1)
Полное имя : \\Kyle Eastwood\2016 Kyle Eastwood - Jazz In Marciac\2016 Kyle Eastwood - Jazz In Marciac.ts
Формат : MPEG-TS
Размер файла : 914 Мбайт
Продолжительность : 1 ч. 0 м.
Режим общего битрейта : Переменный
Общий поток : 2127 Кбит/сек

Видео
Идентификатор : 226 (0xE2)
Идентификатор меню : 19126 (0x4AB6)
Формат : AVC
Формат/Информация : Advanced Video Codec
Профиль формата : High@L3
Настройки формата : CABAC / 4 Ref Frames
Параметр CABAC формата : Да
Параметр RefFrames формата : 4 кадра
Идентификатор кодека : 27
Продолжительность : 1 ч. 0 м.
Битрейт : 1763 Кбит/сек
Ширина : 704 пикселя
Высота : 576 пикселей
Соотношение сторон : 16:9
Частота кадров : 25,000 кадров/сек
Стандарт вещания : Component
Цветовое пространство : YUV
Субдискретизация насыщенности : 4:2:0
Битовая глубина : 8 бит
Тип развёртки : Чересстрочная
Метод сохранения типа развёртки : Раздельные поля
Порядок развёртки : Верхнее поле первое
Бит/(Пиксели*Кадры) : 0.174
Размер потока : 758 Мбайт (83%)
Цветовой диапазон : Limited
Основные цвета : BT.601 PAL
Характеристики трансфера : BT.470 System B/G
Коэффициенты матрицы : BT.470 System B/G

Аудио
Идентификатор : 326 (0x146)
Идентификатор меню : 19126 (0x4AB6)
Формат : MPEG Audio
Версия формата : Version 1
Профиль формата : Layer 2
Идентификатор кодека : 3
Продолжительность : 1 ч. 0 м.
Вид битрейта : Постоянный
Битрейт : 256 Кбит/сек
Каналы : 2 канала
Частота : 48,0 КГц
Частота кадров : 41,667 кадра/сек (1152 SPF)
Метод сжатия : С потерями
Размер потока : 110 Мбайт (12%)
Язык : French
По всем вопросам пишите личное сообщение пользователю M0p94ok.
601
Нет комментариев. Ваш будет первым!