Поиск

2016 Jaime Woods - at Montreal Jazz Fest [HDTV 1080i]

2016 Jaime Woods - at Montreal Jazz Fest [HDTV 1080i]
Стиль:
Дата проведения концерта (записи):
29 июня 2016
Место проведения:
Montreal Jazz Festival
Время звучания:
00:46:55
Главы (разбивка по трекам):
нет
Качество:
HDTV
Состав:
  • Jaime Woods - vocals
  • Daniel Woods - guitar, vocals
Видео:
AVC,1920*1080i (16:9), 4287kbps, 25fps
Аудио#1:
AAC LC, 256kbps, 48kHz, 2ch
Отчёт DVDInfo/MediaInfo/BDInfo
Общее
Полное имя : \\Jaime Woods\2016 Jaime Woods - at Montreal Jazz Fest [HDTV 1080i].mp4
Формат : MPEG-4
Профиль формата : Base Media
Идентификатор кодека : isom (isom/iso2/avc1/mp41)
Размер файла : 1,49 Гбайт
Продолжительность : 46 м. 55 с.
Режим общего битрейта : Переменный
Общий поток : 4554 Кбит/сек
Программа кодирования : VideoReDo (Lavf57.71.100)

Видео
Идентификатор : 1
Формат : AVC
Формат/Информация : Advanced Video Codec
Профиль формата : High@L4
Настройки формата : CABAC / 4 Ref Frames
Параметр CABAC формата : Да
Параметр RefFrames формата : 4 кадра
Идентификатор кодека : avc1
Идентификатор кодека/Информация : Advanced Video Coding
Продолжительность : 46 м. 55 с.
Битрейт : 4287 Кбит/сек
Ширина : 1920 пикселей
Высота : 1080 пикселей
Соотношение сторон : 16:9
Режим частоты кадров : Постоянный
Частота кадров : 50,000 кадров/сек
Частота кадров в оригинале : 25,000 кадров/сек
Стандарт вещания : Component
Цветовое пространство : YUV
Субдискретизация насыщенности : 4:2:0
Битовая глубина : 8 бит
Тип развёртки : Чересстрочная
Метод сохранения типа развёртки : Раздельные поля
Порядок развёртки : Верхнее поле первое
Бит/(Пиксели*Кадры) : 0.041
Размер потока : 1,41 Гбайт (94%)
Цветовой диапазон : Limited
Основные цвета : BT.709
Характеристики трансфера : BT.709
Коэффициенты матрицы : BT.709
Menus : 3
Codec configuration box : avcC

Аудио
Идентификатор : 2
Формат : AAC LC
Формат/Информация : Advanced Audio Codec Low Complexity
Идентификатор кодека : mp4a-40-2
Продолжительность : 46 м. 55 с.
Duration_LastFrame : -21 мс.
Вид битрейта : Переменный
Битрейт : 253 Кбит/сек
Максимальный битрейт : 256 Кбит/сек
Каналы : 2 канала
ChannelLayout : L R
Частота : 48,0 КГц
Частота кадров : 46,875 кадров/сек (1024 SPF)
Метод сжатия : С потерями
Размер потока : 85,1 Мбайт (6%)
Язык : Russian
Default : Да
AlternateGroup/String : 1
Menus : 3

Меню #1
Идентификатор : 3
Идентификатор кодека : txet
Продолжительность : 46 м. 55 с.
Язык : English
Menu For : 1,2
Duration_LastFrame : -184480

Меню #2
00:00:00.000 : Chapter 1
00:05:00.000 : Chapter 2
00:10:00.000 : Chapter 3
00:15:00.000 : Chapter 4
00:20:00.000 : Chapter 5
00:25:00.000 : Chapter 6
00:30:00.000 : Chapter 7
00:35:00.000 : Chapter 8
00:40:00.000 : Chapter 9
00:45:00.000 : Chapter 10
Скриншоты видео
2016 Jaime Woods - at Montreal Jazz Fest [HDTV 1080i] 02016 Jaime Woods - at Montreal Jazz Fest [HDTV 1080i] 12016 Jaime Woods - at Montreal Jazz Fest [HDTV 1080i] 22016 Jaime Woods - at Montreal Jazz Fest [HDTV 1080i] 32016 Jaime Woods - at Montreal Jazz Fest [HDTV 1080i] 42016 Jaime Woods - at Montreal Jazz Fest [HDTV 1080i] 5
Download available for power users only.
537
Нет комментариев. Ваш будет первым!