Поиск

2016 Francesco Bearzatti - Tinissima Quartet - This Machine Kills Fascists [HDTV 1080i]

2016 Francesco Bearzatti - Tinissima Quartet - This Machine Kills Fascists [HDTV 1080i]
Место проведения:
Banlieues Bleues Jazz Festival
Время звучания:
00:54:32
Главы (разбивка по трекам):
нет
Качество:
HDTV
Состав:
  • FRANCESCO BEARZATTI (Clarinet)
  • Giovanni Falzone (Trumpet)
  • Danilo Gallo (Bass)
  • Zenon de Rossi (Drums)
Видео:
AVC,1920*1080i (16:9), 3485kbps, 25fps
Аудио#1:
AAC LC, 256kbps, 48kHz, 2ch
Описание:

Italian saxophonist Francesco Bearzatti and his Tinissima Quartet pay tribute to Woody Guthrie, the father of modern folk music, during the "This Machine Kills Fascists" concert.

Отчёт DVDInfo/MediaInfo/BDInfo
Общее
Полное имя                               : \\2016 Francesco Bearzatti - Tinissima Quartet - This Machine Kills Fascists [HDTV 1080i].mp4
Формат                                   : MPEG-4
Профиль формата                          : Base Media
Идентификатор кодека                     : isom (isom/iso2/avc1/mp41)
Размер файла                             : 1,45 Гбайт
Продолжительность                        : 55 м. 27 с.
Режим общего битрейта                    : Переменный
Общий поток                              : 3752 Кбит/сек
Программа кодирования                    : VideoReDo (Lavf57.71.100)

Видео
Идентификатор                            : 1
Формат                                   : AVC
Формат/Информация                        : Advanced Video Codec
Профиль формата                          : High@L4
Настройки формата                        : CABAC / 4 Ref Frames
Параметр CABAC формата                   : Да
Параметр RefFrames формата               : 4 кадра
Параметр GOP формата                     : M=4, N=28
Идентификатор кодека                     : avc1
Идентификатор кодека/Информация          : Advanced Video Coding
Продолжительность                        : 55 м. 27 с.
Битрейт                                  : 3485 Кбит/сек
Ширина                                   : 1920 пикселей
Высота                                   : 1080 пикселей
Соотношение сторон                       : 16:9
Режим частоты кадров                     : Постоянный
Частота кадров                           : 50,000 кадров/сек
Частота кадров в оригинале               : 25,000 кадров/сек
Стандарт вещания                         : Component
Цветовое пространство                    : YUV
Субдискретизация насыщенности            : 4:2:0
Битовая глубина                          : 8 бит
Тип развёртки                            : Чересстрочная
Метод сохранения типа развёртки          : Раздельные поля
Порядок развёртки                        : Верхнее поле первое
Бит/(Пиксели*Кадры)                      : 0.034
Размер потока                            : 1,35 Гбайт (93%)
Цветовой диапазон                        : Limited
Основные цвета                           : BT.709
Характеристики трансфера                 : BT.709
Коэффициенты матрицы                     : BT.709
Menus                                    : 3
Codec configuration box                  : avcC

Аудио
Идентификатор                            : 2
Формат                                   : AAC LC
Формат/Информация                        : Advanced Audio Codec Low Complexity
Идентификатор кодека                     : mp4a-40-2
Продолжительность                        : 55 м. 27 с.
Duration_LastFrame                       : -21 мс.
Вид битрейта                             : Переменный
Битрейт                                  : 253 Кбит/сек
Максимальный битрейт                     : 256 Кбит/сек
Каналы                                   : 2 канала
ChannelLayout                            : L R
Частота                                  : 48,0 КГц
Частота кадров                           : 46,875 кадров/сек (1024 SPF)
Метод сжатия                             : С потерями
Размер потока                            : 101 Мбайт (7%)
Язык                                     : Russian
Default                                  : Да
AlternateGroup/String                    : 1
Menus                                    : 3

Меню #1
Идентификатор                            : 3
Идентификатор кодека                     : txet
Продолжительность                        : 55 м. 27 с.
Язык                                     : English
Menu For                                 : 1,2
Duration_LastFrame                       : -272640

Меню #2
00:00:00.000                             : Chapter 1
00:05:00.000                             : Chapter 2
00:10:00.000                             : Chapter 3
00:15:00.000                             : Chapter 4
00:20:00.000                             : Chapter 5
00:25:00.000                             : Chapter 6
00:30:00.000                             : Chapter 7
00:35:00.000                             : Chapter 8
00:40:00.000                             : Chapter 9
00:45:00.000                             : Chapter 10
00:50:00.000                             : Chapter 11
00:55:00.000                             : Chapter 12
Скриншоты видео
2016 Francesco Bearzatti - Tinissima Quartet - This Machine Kills Fascists [HDTV 1080i] 02016 Francesco Bearzatti - Tinissima Quartet - This Machine Kills Fascists [HDTV 1080i] 12016 Francesco Bearzatti - Tinissima Quartet - This Machine Kills Fascists [HDTV 1080i] 22016 Francesco Bearzatti - Tinissima Quartet - This Machine Kills Fascists [HDTV 1080i] 32016 Francesco Bearzatti - Tinissima Quartet - This Machine Kills Fascists [HDTV 1080i] 42016 Francesco Bearzatti - Tinissima Quartet - This Machine Kills Fascists [HDTV 1080i] 52016 Francesco Bearzatti - Tinissima Quartet - This Machine Kills Fascists [HDTV 1080i] 6
По всем вопросам пишите личное сообщение пользователю M0p94ok.
540
Нет комментариев. Ваш будет первым!