Поиск

2016 Bugge Wessetoft's New Conception Of Jazz - at Sarajevo Jazz Fest [HDTV 1080i]

2016 Bugge Wessetoft's New Conception Of Jazz - at Sarajevo Jazz Fest [HDTV 1080i]
Дата проведения концерта (записи):
2 ноября 2016
Место проведения:
Sarajevo Jazz Festival, Bosanski kulturni centar, Branilaca Sarajeva
Главы (разбивка по трекам):
нет
Качество:
HDTV
Контейнер:
MP4
Состав:
  • Marthe Lea – saxophone
  • Oddrun Lilja Jonsdottir – guitar
  • Sanskriti Shrestha – tablas
  • Siv Øyun Kjenstad – drums
  • Bugge Wesseltoft – keyboards
Видео:
AVC (h.264) / 1920x1080 (16:9) / 25.00 fps / 4290 Кбит
Аудио#1:
AAC LC / VBR / 256kbps / 48kHz / 2ch stereo
Описание:

ВОЗВРАЩЕНИЕ НОВОЙ КОНЦЕПЦИИ ДЖАЗА В 2016 ГОДУ. 20-ЛЕТНИЙ ЮБИЛЕЙ БУДЕТ ОТПРАЗДНОВАН.

2016/17 год принесет совершенно новый состав. 4 потрясающих молодых таланта из Осло.

Группа исполнит как новый, так и старый материал с такими хитами, как "You Might Say", "Existence" и "Change".

После 10-летнего перерыва Bugge Wesseltoft возобновляет свою культовую "Новую концепцию джаза" в связи с 20-летним юбилеем группы и рекорд-лейбла Jazzland. Первоначальное формирование группы в 1996 году действительно создало новый и свежий импульс для европейской джазовой музыки вместе с такими артистами, как Эрик Труффаз и Нильс Петтер Молваер. Ключевым элементом и концепцией группы было сочетание электронной клубной музыки и живого джаза. New Conception of Jazz стали определением и ведущей фигурой электронного джаза.

Группа взяла перерыв после 10 лет гастролей по всему миру, 400 концертов и 5 альбомов: "New Conception of Jazz" (1996), Sharing (1998), Moving (2001), Live (2003), Filming (2004).

Теперь, в 2016 году, настало время для нового старта — начала записи Jazzland Recordings и 20-летнего юбилея группы, с новыми молодыми музыкантами.

"Участники группы — одни из самых перспективных новых музыкантов Норвегии, — говорит Бугге, — и мы все очень рады играть как единое целое". Группа исполнит как новый, так и старый материал, включая такие "хиты" NCOJ, как "You Might Say", написанный Сидселем Эндресеном, "Existence" и "Change".

https://www.buggewesseltoft.com/ncoj

Дополнительная информация:

This video is available on our DC++ hub: dc.pro-jazz.com
Это видео доступно на нашем DC++ хабе: dc.pro-jazz.com

Отчёт DVDInfo/MediaInfo/BDInfo
Общее
Полное имя : \\B\Bugge Wesseltoft\2016 Bugge Wessetoft's New Conception Of Jazz [HDTV 1080i].mp4
Формат : MPEG-4
Профиль формата : Base Media
Идентификатор кодека : isom (isom/iso2/avc1/mp41)
Размер файла : 2,22 Гбайт
Продолжительность : 1 ч. 9 м.
Общий поток : 4 558 Кбит/сек
Частота кадров : 50,000 кадров/сек
Программа кодирования : VideoReDo (Lavf57.71.100)

Видео
Идентификатор : 1
Формат : AVC
Формат/Информация : Advanced Video Codec
Профиль формата : High@L4
Настройки формата : CABAC / 4 Ref Frames
Параметр CABAC формата : Да
Параметр RefFrames формата : 4 кадра
Идентификатор кодека : avc1
Идентификатор кодека/Информация : Advanced Video Coding
Продолжительность : 1 ч. 9 м.
Битрейт : 4 290 Кбит/сек
Ширина : 1 920 пикселей
Высота : 1 080 пикселей
Соотношение сторон : 16:9
Режим частоты кадров : Постоянный
Частота кадров : 50,000 кадров/сек
Частота кадров в оригинале : 25,000 кадров/сек
Стандарт вещания : Component
Цветовое пространство : YUV
Субдискретизация насыщенности : 4:2:0
Битовая глубина : 8 бит
Тип развёртки : Чересстрочная
Метод сохранения типа развёртки : Раздельные поля
Порядок развёртки : Верхнее поле первое
Бит/(Пиксели*Кадры) : 0.041
Размер потока : 2,09 Гбайт (94%)
Цветовой диапазон : Limited
Основные цвета : BT.709
Характеристики трансфера : BT.709
Коэффициенты матрицы : BT.709
Menus : 3
Codec configuration box : avcC

Аудио
Идентификатор : 2
Формат : MPEG Audio
Версия формата : Version 1
Профиль формата : Layer 2
Идентификатор кодека : mp4a-6B
Продолжительность : 1 ч. 9 м.
Duration_LastFrame : -24 мс.
Вид битрейта : Постоянный
Битрейт : 256 Кбит/сек
Каналы : 2 канала
Частота : 48,0 КГц
Метод сжатия : С потерями
Размер потока : 127 Мбайт (6%)
Язык : English
Default : Да
Alternate group : 1
Menus : 3

Меню #1
Идентификатор : 3
Формат : txet
Идентификатор кодека : txet
Продолжительность : 1 ч. 9 м.
Язык : English
Menu For : 1,2
Duration_LastFrame : -23160

Меню #2
00:00:00.000 : Chapter 1
00:05:00.000 : Chapter 2
00:10:00.000 : Chapter 3
00:15:00.000 : Chapter 4
00:20:00.000 : Chapter 5
00:25:00.000 : Chapter 6
00:30:00.000 : Chapter 7
00:35:00.000 : Chapter 8
00:40:00.000 : Chapter 9
00:45:00.000 : Chapter 10
00:50:00.000 : Chapter 11
00:55:00.000 : Chapter 12
01:00:00.000 : Chapter 13
01:05:00.000 : Chapter 14
Any questions - projazzclub@gmail.com
428
Нет комментариев. Ваш будет первым!