Поиск

2015 Tcha Limberger Trio - At The Jazz a Foix Fest [HDTV 1080i]

2015 Tcha Limberger Trio - At The Jazz a Foix Fest [HDTV 1080i]
Стиль:
Место проведения:
The Jazz a Foix Festival
Главы (разбивка по трекам):
нет
Качество:
HDTV
Состав:
  • Tcha Limberger - Violin
  • Dave Kelbie - Guitar
  • Sebastien Girardot - Bass
  • Mozes Rosenberg - Guitar
Видео:
AVC (h.264) / 1920*1080i / (16:9) / 5234kbps / 25fps
Аудио#1:
MPEG2 / 256kbps / 48kHz / 2ch
Отчёт DVDInfo/MediaInfo/BDInfo
Общее
Полное имя : \\T\Tcha Limberger\2014 Tcha Limberger Trio - At The Foix Jazz Fest [HDTV 1080i]\2014 Tcha Limberger Trio - At The Foix Jazz Fest [HDTV 1080i].mp4
Формат : MPEG-4
Профиль формата : Base Media
Идентификатор кодека : isom (isom/iso2/avc1/mp41)
Размер файла : 2,15 Гбайт
Продолжительность : 56 м. 1 с.
Режим общего битрейта : Переменный
Общий поток : 5494 Кбит/сек
Программа кодирования : Lavf54.63.104

Видео
Идентификатор : 1
Формат : AVC
Формат/Информация : Advanced Video Codec
Профиль формата : High@L4
Настройки формата : CABAC / 4 Ref Frames
Параметр CABAC формата : Да
Параметр RefFrames формата : 4 кадра
Параметр GOP формата : M=4, N=28
Идентификатор кодека : avc1
Идентификатор кодека/Информация : Advanced Video Coding
Продолжительность : 56 м. 1 с.
Битрейт : 5234 Кбит/сек
Ширина : 1920 пикселей
Высота : 1080 пикселей
Соотношение сторон : 16:9
Режим частоты кадров : Постоянный
Частота кадров : 25,000 кадров/сек
Стандарт вещания : Component
Цветовое пространство : YUV
Субдискретизация насыщенности : 4:2:0
Битовая глубина : 8 бит
Тип развёртки : Чересстрочная
Метод сохранения типа развёртки : Раздельные поля
Порядок развёртки : Верхнее поле первое
Бит/(Пиксели*Кадры) : 0.101
Размер потока : 2,05 Гбайт (95%)
Цветовой диапазон : Limited
Основные цвета : BT.709
Характеристики трансфера : BT.709
Коэффициенты матрицы : BT.709
Codec configuration box : avcC

Аудио
Идентификатор : 2
Формат : AAC LC
Формат/Информация : Advanced Audio Codec Low Complexity
Идентификатор кодека : mp4a-40-2
Продолжительность : 56 м. 1 с.
Duration_LastFrame : -21 мс.
Вид битрейта : Переменный
Битрейт : 253 Кбит/сек
Максимальный битрейт : 256 Кбит/сек
Каналы : 2 канала
ChannelLayout : L R
Частота : 48,0 КГц
Частота кадров : 46,875 кадров/сек (1024 SPF)
Метод сжатия : С потерями
Размер потока : 102 Мбайт (5%)
Язык : Russian
Default : Да
AlternateGroup/String : 1
Скриншоты видео
2015 Tcha Limberger Trio - At The Jazz a Foix Fest [HDTV 1080i] 02015 Tcha Limberger Trio - At The Jazz a Foix Fest [HDTV 1080i] 12015 Tcha Limberger Trio - At The Jazz a Foix Fest [HDTV 1080i] 22015 Tcha Limberger Trio - At The Jazz a Foix Fest [HDTV 1080i] 32015 Tcha Limberger Trio - At The Jazz a Foix Fest [HDTV 1080i] 42015 Tcha Limberger Trio - At The Jazz a Foix Fest [HDTV 1080i] 52015 Tcha Limberger Trio - At The Jazz a Foix Fest [HDTV 1080i] 6
По всем вопросам пишите личное сообщение пользователю M0p94ok.
599
Нет комментариев. Ваш будет первым!