Поиск

2015 Steve Coleman & The Council Of Balance - at Jazz a la Villette [HDTV 1080i]

2015 Steve Coleman & The Council Of Balance - at Jazz a la Villette [HDTV 1080i]
Стиль:
Дата проведения концерта (записи):
5 сентября 2015
Место проведения:
Paris, France
Главы (разбивка по трекам):
нет
Качество:
HDTV
Контейнер:
MP4
Состав:
  • Steve Coleman — Alto saxophonist
  • Jonathan Finlayson — Trumpeter
  • Jen Shyu — Singer
  • Rane Moore — Clarinetist, bass-clarinet
  • Maria Grand — Saxophonist
  • Mike Lormand — Trombonist
  • Jeffrey Missal — Trumpeter
  • Barry J. Crawford — Flutist
  • Kristin Lee — Violinist
  • Elizabeth Weisser — Violist
  • Jay Campbell — Cellist
  • David Bryant — Pianist
  • Miles Okazaki — Electric guitar
  • Anthony Tidd — Bass guitarist
  • Greg Chudzik — Double bassist
  • Alex Lipowski — Percussionist
  • Sean Rickman — Drummer
Видео:
AVC (h.264) / 1920x1080 / interlaced / 16:9 / 4 331 kbps / 25.00 fps
Аудио#1:
AAC LC / VBR / 256kbps / 48kHz / 2ch stereo
Описание:

Созданный Стивом Коулманом в конце 90-х годов, "Совет равновесия" (The Council of Balance) — это смелый проект для биг-бэнда. К 20-летию знаменитых концертов саксофониста в Hot Brass de la Villette (ныне известном как Trabendo) Стив Коулман и его музыканты представляют новые композиции из альбома Synovial Joints для редкого и захватывающего дух концерта.

Американский саксофонист и композитор Стив Коулман — один из самых влиятельных творцов в истории джаза. Как Чарли Паркер, Майлз Дэвис, Джон Колтрейн, Орнетт Колман, Дэйв Холланд и другие великие джазовые музыканты, он изобрел уникальный способ построения и исполнения этого музыкального жанра.

Отчёт DVDInfo/MediaInfo/BDInfo
Общее
Полное имя : \\Nasf8f4eb\6\S\Steve Coleman\2015 Steve Coleman & The Council Of Balance - at Jazz a la Villette [HDTV 1080i].mp4
Формат : MPEG-4
Профиль формата : Base Media
Идентификатор кодека : isom (isom/iso2/avc1/mp41)
Размер файла : 2,27 Гбайт
Продолжительность : 1 ч. 10 м.
Режим общего битрейта : Переменный
Общий поток : 4 598 Кбит/сек
Частота кадров : 50,000 кадров/сек
Программа кодирования : VideoReDo (Lavf58.29.100)

Видео
Идентификатор : 1
Формат : AVC
Формат/Информация : Advanced Video Codec
Профиль формата : High@L4
Настройки формата : CABAC / 4 Ref Frames
Параметр CABAC формата : Да
Параметр RefFrames формата : 4 кадра
Параметр GOP формата : M=4, N=28
Идентификатор кодека : avc1
Идентификатор кодека/Информация : Advanced Video Coding
Продолжительность : 1 ч. 10 м.
Битрейт : 4 331 Кбит/сек
Ширина : 1 920 пикселей
Высота : 1 080 пикселей
Соотношение сторон : 16:9
Режим частоты кадров : Постоянный
Частота кадров : 50,000 кадров/сек
Частота кадров в оригинале : 25,000 кадров/сек
Стандарт вещания : Component
Цветовое пространство : YUV
Субдискретизация насыщенности : 4:2:0
Битовая глубина : 8 бит
Тип развёртки : Чересстрочная
Метод сохранения типа развёртки : Раздельные поля
Порядок развёртки : Верхнее поле первое
Бит/(Пиксели*Кадры) : 0.042
Размер потока : 2,14 Гбайт (94%)
Цветовой диапазон : Limited
Основные цвета : BT.709
Характеристики трансфера : BT.709
Коэффициенты матрицы : BT.709
Menus : 3
Codec configuration box : avcC

Аудио
Идентификатор : 2
Формат : AAC LC
Формат/Информация : Advanced Audio Codec Low Complexity
Идентификатор кодека : mp4a-40-2
Продолжительность : 1 ч. 10 м.
Duration_LastFrame : -21 мс.
Вид битрейта : Переменный
Битрейт : 253 Кбит/сек
Максимальный битрейт : 256 Кбит/сек
Каналы : 2 канала
Channel layout : L R
Частота : 48,0 КГц
Частота кадров : 46,875 кадров/сек (1024 SPF)
Метод сжатия : С потерями
Размер потока : 128 Мбайт (6%)
Язык : French
Default : Да
Alternate group : 1
Menus : 3

Меню #1
Идентификатор : 3
Формат : txet
Идентификатор кодека : txet
Продолжительность : 1 ч. 10 м.
Язык : English
Menu For : 1,2
Duration_LastFrame : -257040

Меню #2
00:00:00.000 : Chapter 1
00:05:00.000 : Chapter 2
00:10:00.000 : Chapter 3
00:15:00.000 : Chapter 4
00:20:00.000 : Chapter 5
00:25:00.000 : Chapter 6
00:30:00.000 : Chapter 7
00:35:00.000 : Chapter 8
00:40:00.000 : Chapter 9
00:45:00.000 : Chapter 10
00:50:00.000 : Chapter 11
00:55:00.000 : Chapter 12
01:00:00.000 : Chapter 13
01:05:00.000 : Chapter 14
01:10:00.000 : Chapter 15
Any questions - projazzclub@gmail.com
499
Нет комментариев. Ваш будет первым!