Поиск

2015 All Star Band with Antonio Farao, Eddie Gomez, Bireli Lagrene, Lenny White - at Jazz en Baie [HDTV 1080i]

2015 All Star Band with Antonio Farao, Eddie Gomez, Bireli Lagrene, Lenny White - at Jazz en Baie [HDTV 1080i]
Стиль:
Дата проведения концерта (записи):
15 августа 2015
Место проведения:
Grenoble, Normande, France
Время звучания:
01:06:38
Главы (разбивка по трекам):
нет
Качество:
HDTV
Контейнер:
MP4
Состав:
  • Antonio Farao - piano
  • Eddie Gomez - double bass
  • Bireli Lagrene - guitar
  • Lenny White - drums
Треклист:

1. Softly As A Morning Sunrise
2. One Take
3. For Four
4. Oleo
5. Love Letter
6. Wolfbane

Видео:
AVC (h.264) / 1280*720p / 16x9 / 4 906kbps / 25fps
Аудио#1:
AAC LC / VBR / 256kbps / 48kHz / 2ch stereo
Отчёт DVDInfo/MediaInfo/BDInfo
Общее
Полное имя : \\All Star Band\2015 All Star Band - at Jazz en Baie [HDTV 1080i].mp4
Формат : MPEG-4
Профиль формата : Base Media
Идентификатор кодека : isom (isom/iso2/avc1/mp41)
Размер файла : 2,41 Гбайт
Продолжительность : 1 ч. 6 м.
Режим общего битрейта : Переменный
Общий поток : 5 173 Кбит/сек
Программа кодирования : VideoReDo (Lavf58.29.100)

Видео
Идентификатор : 1
Формат : AVC
Формат/Информация : Advanced Video Codec
Профиль формата : High@L4
Настройки формата : CABAC / 4 Ref Frames
Параметр CABAC формата : Да
Параметр RefFrames формата : 4 кадра
Идентификатор кодека : avc1
Идентификатор кодека/Информация : Advanced Video Coding
Продолжительность : 1 ч. 6 м.
Битрейт : 4 906 Кбит/сек
Ширина : 1 920 пикселей
Высота : 1 080 пикселей
Соотношение сторон : 16:9
Режим частоты кадров : Постоянный
Частота кадров : 25,000 кадров/сек
Цветовое пространство : YUV
Субдискретизация насыщенности : 4:2:0
Битовая глубина : 8 бит
Тип развёртки : MBAFF
Бит/(Пиксели*Кадры) : 0.095
Размер потока : 2,28 Гбайт (95%)
Цветовой диапазон : Limited
Основные цвета : BT.709
Характеристики трансфера : BT.709
Коэффициенты матрицы : BT.709
Menus : 3
Codec configuration box : avcC

Аудио
Идентификатор : 2
Формат : AAC LC
Формат/Информация : Advanced Audio Codec Low Complexity
Идентификатор кодека : mp4a-40-2
Продолжительность : 1 ч. 6 м.
Duration_LastFrame : -21 мс.
Вид битрейта : Переменный
Битрейт : 253 Кбит/сек
Максимальный битрейт : 256 Кбит/сек
Каналы : 2 канала
Channel layout : L R
Частота : 48,0 КГц
Частота кадров : 46,875 кадров/сек (1024 SPF)
Метод сжатия : С потерями
Размер потока : 121 Мбайт (5%)
Язык : French
Default : Да
Alternate group : 1
Menus : 3

Меню #1
Идентификатор : 3
Формат : txet
Идентификатор кодека : txet
Продолжительность : 1 ч. 6 м.
Язык : English
Menu For : 1,2
Duration_LastFrame : -201120

Меню #2
00:00:00.000 : Chapter 1
00:05:00.000 : Chapter 2
00:10:00.000 : Chapter 3
00:15:00.000 : Chapter 4
00:20:00.000 : Chapter 5
00:25:00.000 : Chapter 6
00:30:00.000 : Chapter 7
00:35:00.000 : Chapter 8
00:40:00.000 : Chapter 9
00:45:00.000 : Chapter 10
00:50:00.000 : Chapter 11
00:55:00.000 : Chapter 12
01:00:00.000 : Chapter 13
01:05:00.000 : Chapter 14
По всем вопросам пишите личное сообщение пользователю M0p94ok.
292
Нет комментариев. Ваш будет первым!