Вы используете незарегистрированную версию компонента "Вкладки"!

Поиск

2014 Vicente Amigo - at Jazz A Sete Fest, Theatre de la Mer [HDTV 1080i]

2014 Vicente Amigo - at Jazz A Sete Fest, Theatre de la Mer [HDTV 1080i]
Место проведения:
Jazz à Sète Festival
Время звучания:
00:59:29
Главы (разбивка по трекам):
нет
Качество:
HDTV
Контейнер:
MKV
Состав:
  • Vicente Amigo - guitare
  • Anil Fernandez - deuxieme guitare
  • Ewen Vernal - basse
  • Guy Fletcher - clavier
  • John McCusker - violin
  • Mike McGoldrick - flute
  • Paquito Gonzalez - batterie
  • Rafael De Utrera - chant
Треклист:

1. Solo
2. Mensaje
3. Autorretrato
4. Prologo - Estacion Primavera
5. Rio de la Seda
6. Azules y Corinto

Видео:
AVC (h.264) / 1920*1080i / 16:9 / 4846bps / 25fps
Аудио#1:
MPEG 2 / 256 kbps / 48 kHz / 2.0 ch stereo
Описание:

Висенте Амиго сейчас один из великих мастеров игры на гитаре фламенко. В 2013 он выпустил свой седьмой альбом Tierra в окружении выдающихся музыкантов, таких как участники Dire Straits и кельтской британской группы Capercaillie.

Висенте Амиго, считающийся одним из самых замечательных и добродетельных исполнителей своего поколения, начал неустанные поиски эстетических и звуковых возможностей гитары фламенко. Играя на всех сценах мира с величественной и безупречной техникой, его музыка захватывает всю публику. Музыканты, певцы и танцоры поддерживают фламенко в захватывающем шоу.

В 1988 он решил начать свою сольную карьеру, выступив на Национальном фестивале горного пения в Союзе, где он получил «Бордон минеро», первый приз гитарных конкурсов. Вскоре после этого он выиграл Международный конкурс Эстремадура. Он получил посвящение в качестве первого гитариста фламенко в 1989 после того, как единогласно выиграл Приз Раймонда Монтойи по игре на гитаре на 12-м Национальном конкурсе искусства фламенко в Кордове.

Начиная с его первого альбома De mi corazon al Aire в 1991 (отмеченного наградами «Icaro» и «El Ojo Critico») и до следующих двух Vivencias Imaginadas (1995) и Poeta (1997) последовали призы, как и а также возможность играть с такими великими музыкантами, как Джон МакЛафлин, Дэвид Боуи, Стэнли Джордан, Милтон Насимьенто, Жоао Боско, Фил Мансанера, Пако де Люсия, Камарон де ла Исла и другими. В 1991 Висенте Амиго делит с Пако де Лусия представление фламенко на международном фестивале «Легенды гитары».

Его представления в мире всегда пользуются большим успехом у публики, которая следует за ним, очарованная его невероятным талантом и его смелыми исследованиями, которые он выполняет с удивительной природной способностью.

Отчёт DVDInfo/MediaInfo/BDInfo
Общее
Уникальный идентификатор : 241559114397995376867376452691568495486 (0xB5BA97DA5FCCB3EA0911440C695A0B7E)
Полное имя : \\Nasf8f4eb\7\V\Vicente Amigo\2014 Vicente Amigo - at Jazz A Sete, Theatre de la Mer [HDTV 1080i].mkv
Формат : Matroska
Версия формата : Version 2
Размер файла : 2,16 Гбайт
Продолжительность : 59 м. 29 с.
Общий поток : 5 206 Кбит/сек
Программа кодирования : Lavf54.63.104
Библиотека кодирования : Lavf54.63.104

Видео
Идентификатор : 1a
Формат : AVC
Формат/Информация : Advanced Video Codec
Профиль формата : High@L4
Настройки формата : CABAC / 4 Ref Frames
Параметр CABAC формата : Да
Параметр RefFrames формата : 4 кадра
Параметр GOP формата : M=4, N=28
Идентификатор кодека : V_MPEG4/ISO/AVC
Продолжительность : 59 м. 29 с.
Битрейт : 4 846 Кбит/сек
Ширина : 1 920 пикселей
Высота : 1 080 пикселей
Соотношение сторон : 16:9
Режим частоты кадров : Постоянный
Частота кадров : 25,000 кадров/сек
Стандарт вещания : Component
Цветовое пространство : YUV
Субдискретизация насыщенности : 4:2:0
Битовая глубина : 8 бит
Тип развёртки : Чересстрочная
Метод сохранения типа развёртки : Раздельные поля
Порядок развёртки : Верхнее поле первое
Бит/(Пиксели*Кадры) : 0.093
Размер потока : 2,01 Гбайт (93%)
Default : Нет
Forced : Нет
Цветовой диапазон : Limited
Основные цвета : BT.709
Характеристики трансфера : BT.709
Коэффициенты матрицы : BT.709

Аудио
Идентификатор : 2
Формат : MPEG Audio
Версия формата : Version 1
Профиль формата : Layer 2
Идентификатор кодека : A_MPEG/L2
Идентификатор кодека/Подсказка : MP2
Продолжительность : 59 м. 29 с.
Вид битрейта : Постоянный
Битрейт : 256 Кбит/сек
Каналы : 2 канала
Частота : 48,0 КГц
Метод сжатия : С потерями
Размер потока : 109 Мбайт (5%)
Язык : Russian
Default : Да
Forced : Нет
Any questions - support@pro-jazz.com.
Есть вопросы - support@pro-jazz.com
184
Нет комментариев. Ваш будет первым!