Поиск

2013 WDR Big Band feat. Chano Dominguez Ggroup - at Leverkusener Jazztage [HDTV 720p]

2013 WDR Big Band feat. Chano Dominguez Ggroup - at Leverkusener Jazztage [HDTV 720p]
Дата проведения концерта (записи):
12 ноября 2013
Место проведения:
Leverkusener Jazztage, Germany
Время звучания:
00:58:56
Главы (разбивка по трекам):
нет
Качество:
HDTV
Контейнер:
TS
Состав:
  • Leitung Und Arrangement: Vince Mendoza
  • Reeds: Johan Hörlen, Karolina Strassmayer, Olivier Peters, Paul Heller, Jens Neufang
  • Brass: Wim Both, Rob Bruynen, Andy Haderer, John Marshall, Ludwig Nuss,
  • Marshall Gilkes, Andy Hunter, Mattis Cederberg

Rhythm Section:

  • Paul Shigihara - Guitar
  • John Goldsby - Bass
  • Hans Dekker - Drums

Gäste Solisten:

  • Chano Domínguez - Piano
  • Daniel Navarro - Dance
  • Blás Córdoba - Vocals
  • Israel Suárez - Percussion
Треклист:

1. Mentidero
2. Soleando
3. Plaza De Mina
4. Otoño
5. Rumbetango
6. El Aguacero

Видео:
5 688 Kbps, 1280*720 (16:9), at 50.000 fps, AVC (High@L4.0) (CABAC / 4 Ref Frames)
Аудио#1:
German, 192 Kbps, 48.0 KHz, 2 channels, MPEG Audio (Version 1) (Layer 2)
Аудио#2:
192 Kbps, 48.0 KHz, 2 channels, MPEG Audio (Version 1) (Layer 2)
Аудио#3:
German, 448 Kbps, 48.0 KHz, 16 bits, 2 channels, AC-3
Отчёт DVDInfo/MediaInfo/BDInfo
General
ID : 1 (0x1)
Complete name : C:\rutracker.org_HD\WDR HD_WDR Big Band - Leverkusener Jazztage 2013.ts
Format : MPEG-TS
File size : 2.83 GiB
Duration : 58mn 56s
Overall bit rate mode : Variable
Overall bit rate : 6 868 Kbps
Video
ID : 5501 (0x157D)
Menu ID : 1 (0x1)
Format : AVC
Format/Info : Advanced Video Codec
Format profile : High@L4.0
Format settings, CABAC : Yes
Format settings, ReFrames : 4 frames
Codec ID : 27
Duration : 58mn 56s
Bit rate : 5 688 Kbps
Width : 1 280 pixels
Height : 720 pixels
Display aspect ratio : 16:9
Frame rate : 50.000 fps
Color space : YUV
Chroma subsampling : 4:2:0
Bit depth : 8 bits
Scan type : Progressive
Bits/(Pixel*Frame) : 0.123
Stream size : 2.34 GiB (83%)
Audio #1
ID : 5502 (0x157E)
Menu ID : 1 (0x1)
Format : MPEG Audio
Format version : Version 1
Format profile : Layer 2
Codec ID : 3
Duration : 58mn 56s
Bit rate mode : Constant
Bit rate : 192 Kbps
Channel(s) : 2 channels
Sampling rate : 48.0 KHz
Compression mode : Lossy
Stream size : 80.9 MiB (3%)
Language : German
Audio #2
ID : 5503 (0x157F)
Menu ID : 1 (0x1)
Format : MPEG Audio
Format version : Version 1
Format profile : Layer 2
Codec ID : 3
Duration : 58mn 56s
Bit rate mode : Constant
Bit rate : 192 Kbps
Channel(s) : 2 channels
Sampling rate : 48.0 KHz
Compression mode : Lossy
Stream size : 80.9 MiB (3%)
Audio #3
ID : 5506 (0x1582)
Menu ID : 1 (0x1)
Format : AC-3
Format/Info : Audio Coding 3
Mode extension : CM (complete main)
Format settings, Endianness : Big
Codec ID : 6
Duration : 58mn 56s
Bit rate mode : Constant
Bit rate : 448 Kbps
Channel(s) : 2 channels
Channel positions : Front: L R
Sampling rate : 48.0 KHz
Bit depth : 16 bits
Compression mode : Lossy
Stream size : 189 MiB (7%)
Language : German
По всем вопросам пишите личное сообщение пользователю M0p94ok.
80
Нет комментариев. Ваш будет первым!