Поиск

2013 VA - The Kennedy Center Honors Herbie Hancock Tribute [HDTV 1080i]

2013 VA - The Kennedy Center Honors Herbie Hancock Tribute [HDTV 1080i]
Стиль:
Дата проведения концерта (записи):
8 декабря 2013
Место проведения:
CBS-TV
Главы (разбивка по трекам):
нет
Качество:
HDTV
Контейнер:
TS
Состав:
  • Chick Corea
  • Dave Holland
  • Jack DeJohnette
  • Terrence Blanchard
  • Wayne Shorter
  • Joshua Redman
  • Aaron Parks
  • James Genus
  • Terri Lyne Carrington
  • Kurt Rosenwinkel
  • Vinnie Colaiuta
  • Lionel Loueke
  • Michael Bearden
  • Marcus Miller
  • Snoop Dogg
Треклист:

01. - Bill O'Riley - Intro 00:00
02. - Wayne Shorter, Terence Blanchard, Chick Corea and Marcus Miller, Dave Holland, Jack DeJohnette - Bebop Set (Walkin') 06:43
03. - Terence Blanchard, Joshua Redman, Kurt Rosenwinkel, Aaron Parks, James Genus and Terri Lyne Carrington - Watermelon Man 09:01
04. - Snoop Dogg, Mix Master Mike, Terence Blanchard, Michael Bearden, Lionel Loueke, Marcus Miller and Vinnie Colaiuta - Mash-Up Of The US3 Arrangement Of Hancock’s Cantaloupe Island (Rockit) / Gin and Juice 11:12
05. - Mix Master Mike, Marcus Miller and Vinnie Colaiuta - Chameleon 14:07

Видео:
MPEG2 Video 1920x1080 29.97fps 15.3 Mbps
Аудио#1:
Dolby AC3 48000Hz 6ch 384kbps
Описание:

Отчёт DVDInfo/MediaInfo/BDInfo
General
ID : 1 (0x1)
Complete name : E:\Kennedy Center Honors Herbie Hancock 2013-12-08 HDTV 1080i\Kennedy Center Honors Herbie Hancock 2013-12-08 HDTV 1080i - performances.ts
Format : MPEG-TS
File size : 1.13 GiB
Duration : 9mn 46s
Overall bit rate mode : Variable
Overall bit rate : 16.5 Mbps
Video
ID : 49 (0x31)
Menu ID : 1 (0x1)
Format : MPEG Video
Format version : Version 2
Format profile : Main@High
Format settings, BVOP : No
Format settings, Matrix : Custom
Format settings, GOP : Variable
Codec ID : 2
Duration : 9mn 46s
Bit rate mode : Variable
Bit rate : 15.3 Mbps
Maximum bit rate : 80.0 Mbps
Width : 1 920 pixels
Height : 1 080 pixels
Display aspect ratio : 16:9
Frame rate : 29.970 fps
Color space : YUV
Chroma subsampling : 4:2:0
Bit depth : 8 bits
Scan type : Interlaced
Scan order : Top Field First
Compression mode : Lossy
Bits/(Pixel*Frame) : 0.246
Time code of first frame : 00:00:00;00
Time code source : Group of pictures header
Stream size : 1.04 GiB (93%)
Audio
ID : 52 (0x34)
Menu ID : 1 (0x1)
Format : AC-3
Format/Info : Audio Coding 3
Mode extension : CM (complete main)
Format settings, Endianness : Big
Codec ID : 129
Duration : 9mn 46s
Bit rate mode : Constant
Bit rate : 384 Kbps
Channel count : 6 channels
Channel positions : Front: L C R, Side: L R, LFE
Sampling rate : 48.0 KHz
Bit depth : 16 bits
Compression mode : Lossy
Delay relative to video : 20ms
Stream size : 26.8 MiB (2%)
Language : English
По всем вопросам пишите личное сообщение пользователю M0p94ok.
92
Нет комментариев. Ваш будет первым!