Поиск

2013 Snarky Puppy - at The Stockholm Jazz Festival [HDTV 1080p]

2013 Snarky Puppy - at The Stockholm Jazz Festival [HDTV 1080p]
Стиль:
Дата проведения концерта (записи):
18 октября 2013
Место проведения:
The Stockholm Jazz Festival
Время звучания:
00:56:18
Главы (разбивка по трекам):
нет
Качество:
HDTV
Контейнер:
MP4
Треклист:

01 Intro 0:00
02 Shofucan (from 2014' "We Like It Here") 02:15
03 Ready Wednesday (from 2010' "Tell Your Friends") 09:07
04 Skate You (from 2010' "Tell Your Friends") 20:27
05 Flood (from 2010' "Tell Your Friends") 31:03
06 Strawman (from 2008' "Bring Us the Bright") 46:20

Видео:
1920x1080 (16:9), 25.00 fps, AVC, 8857 Кбит, 0.170 bits/pixel
Аудио#1:
48.0 KHz, AAC-LC, 2 ch, stereo, 128-384 Kbps VBR
Описание:

Snarky Puppy — бойкий джазовый фьюжн из Техаса. Включенное в программу стокгольмского джазового фестиваля шоу Snarky Puppy призвано наглядно продемонстрировать, что в джазовом лексиконе подразумевается под термином "powerhouse".

Отчёт DVDInfo/MediaInfo/BDInfo
Полное имя : G:\DVD\Snarky Puppy - ATSJF 2013\Snarky Puppy - At The Stockholm Jazz Festival 2013.mp4
Формат : MPEG-4
Профиль формата : Base Media / Version 2
Идентификатор кодека : mp42
Размер файла : 3,64 Гбайт
Продолжительность : 56 м.
Общий поток : 9245 Кбит/сек
Дата кодирования : UTC 2013-12-31 06:52:12
Дата пометки : UTC 2013-12-31 06:52:12
Видео
Идентификатор : 2
Формат : AVC
Формат/Информация : Advanced Video Codec
Профиль формата : Main@L4.0
Параметр CABAC формата : Да
Параметр ReFrames формата : 2 кадра
Идентификатор кодека : avc1
Идентификатор кодека/Информация : Advanced Video Coding
Продолжительность : 56 м.
Вид битрейта : Переменный
Битрейт : 8857 Кбит/сек
Максимальный битрейт : 9001 Кбит/сек
Ширина : 1920 пикселей
Высота : 1088 пикселей
Высота оригинала : 1080 пикселей
Соотношение сторон : 16:9
Соотношение сторон в оригинале : 16:9
Режим частоты кадров : Постоянный
Частота кадров : 25,000 кадров/сек
Частота кадров в оригинале : 12,500 кадров/сек
Цветовое пространство : YUV
Субдискретизация насыщенности : 4:2:0
Битовая глубина : 8 бит
Тип развёртки : Прогрессивная
Бит/(Пиксели*Кадры) : 0.170
Размер потока : 3,48 Гбайт (96%)
Язык : English
Дата кодирования : UTC 2013-12-31 06:52:12
Дата пометки : UTC 2013-12-31 06:52:12
Аудио
Идентификатор : 1
Формат : AAC
Формат/Информация : Advanced Audio Codec
Профиль формата : LC
Идентификатор кодека : 40
Продолжительность : 56 м.
Вид битрейта : Постоянный
Битрейт : 384 Кбит/сек
Номинальный битрейт : 128 Кбит/сек
Каналы : 2 канала
Расположение каналов : Front: L R
Частота : 48,0 КГц
Метод сжатия : С потерями
Размер потока : 155 Мбайт (4%)
Язык : English
Дата кодирования : UTC 2013-12-31 06:52:12
Дата пометки : UTC 2013-12-31 06:52:12
По всем вопросам пишите личное сообщение пользователю M0p94ok.
134
Нет комментариев. Ваш будет первым!