Поиск

2013 Rusconi Unplugged - at The Tokyo Jazz Festival [HDTV 1080p]

2013 Rusconi Unplugged - at The Tokyo Jazz Festival [HDTV 1080p]
Стиль:
Главы (разбивка по трекам):
нет
Качество:
HDTV
Контейнер:
MP4
Состав:
  • Stefan Rusconi - piano, space echo & sound preparations, backing vocals
  • Fabian Gisler - double bass, distorition & feedback, backing vocals
  • Claudio Strueby - drums, tape & glockenspiel, backing vocals
Видео:
1920x1080 (16:9), 25.00 fps, AVC, 9415 Кбит, 0.180 bits/pixel
Аудио#1:
48.0 KHz, AAC-LC, 2 ch, stereo, 128-384 Kbps VBR
Дополнительная информация:

This album is available on our DC++ hub:
Этот альбом доступен на нашем DC++ хабе:
dchub://hub.pro-jazz.com:7777

Отчёт DVDInfo/MediaInfo/BDInfo
Полное имя : \Rusconi Unplugged\Rusconi Unplugged - At The Tokyo Jazz Festival 2013.mp4
Формат : MPEG-4
Профиль формата : Base Media / Version 2
Идентификатор кодека : mp42
Размер файла : 4,50 Гбайт
Продолжительность : 1 ч. 3 м.
Режим общего битрейта : Переменный
Общий поток : 10,2 Мбит/сек
Дата кодирования : UTC 2014-02-06 10:55:34
Дата пометки : UTC 2014-02-06 10:55:34
Видео
Идентификатор : 2
Формат : AVC
Формат/Информация : Advanced Video Codec
Профиль формата : Main@L4.1
Параметр CABAC формата : Да
Параметр ReFrames формата : 2 кадра
Параметр GOP формата : M=3, N=30
Идентификатор кодека : avc1
Идентификатор кодека/Информация : Advanced Video Coding
Продолжительность : 1 ч. 3 м.
Продолжительность оригинала : 1 ч. 3 м.
Вид битрейта : Переменный
Битрейт : 9415 Кбит/сек
Максимальный битрейт : 10,0 Мбит/сек
Ширина : 1920 пикселей
Высота : 1088 пикселей
Высота оригинала : 1080 пикселей
Соотношение сторон : 16:9
Соотношение сторон в оригинале : 16:9
Режим частоты кадров : Постоянный
Частота кадров : 25,000 кадров/сек
Частота кадров в оригинале : 12,500 кадров/сек
Цветовое пространство : YUV
Субдискретизация насыщенности : 4:2:0
Битовая глубина : 8 бит
Тип развёртки : Прогрессивная
Бит/(Пиксели*Кадры) : 0.180
Размер потока : 4,15 Гбайт (92%)
Размер потока оригинала : 4,33 Гбайт (96%)
Язык : English
Дата кодирования : UTC 2014-02-06 10:55:34
Дата пометки : UTC 2014-02-06 10:55:34
Аудио
Идентификатор : 1
Формат : AAC
Формат/Информация : Advanced Audio Codec
Профиль формата : LC
Идентификатор кодека : 40
Продолжительность : 1 ч. 3 м.
Продолжительность оригинала : 1 ч. 3 м.
Вид битрейта : Постоянный
Битрейт : 384 Кбит/сек
Номинальный битрейт : 128 Кбит/сек
Каналы : 2 канала
Расположение каналов : Front: L R
Частота : 48,0 КГц
Метод сжатия : С потерями
Размер потока : 173 Мбайт (4%)
Размер потока оригинала : 173 Мбайт (4%)
Язык : English
Дата кодирования : UTC 2014-02-06 10:55:34
Дата пометки : UTC 2014-02-06 10:55:34
mdhd_Duration : 3786810
Any questions - support@pro-jazz.com
To become a power user - read FAQ.
91
Нет комментариев. Ваш будет первым!