Вы используете незарегистрированную версию компонента "Вкладки"!

Поиск

2013 Norah Jones - Live at Austin City Limits [HDTVRip 720p]

2013 Norah Jones - Live at Austin City Limits [HDTVRip 720p]
Стиль:
Дата проведения концерта (записи):
19 января 2013
Место проведения:
Austin City Limits, Austin, Texas, USA
Время звучания:
00:24:59
Главы (разбивка по трекам):
нет
Качество:
HDTVRip
Контейнер:
MKV
Состав:
  • Norah Jones

with

  • Pete Remm - keyboards, piano, background vocals
  • Jason Abraham Roberts - guitar, backing vocals
  • Josh Lattanzi - bass, guitar, piano, background vocals
  • Greg Wieczorek - drums, percussion, background vocals
Видео:
AVC / 1280x720p / 16:9 / 4053 Kbps / 29.970 fps
Аудио#1:
AC-3 Dolby Digital / 384 Kbps / 48.0 KHz / 6 ch
Описание:

Выступление в студии Austin City Limits, трансляция телеканала PBS.

Отчёт DVDInfo/MediaInfo/BDInfo
General
Unique ID : 210026985864914625492992882500111263973 (0x9E01B9E30B362A36A2A36925DDA568E5)
Complete name : F:\norah_jones-austin_city_limits_(2013-01-19)-720p-x264-2013-srpx.mkv
Format : Matroska
Format version : Version 2
File size : 809 MiB
Duration : 24mn 59s
Overall bit rate : 4 527 Kbps
Encoded date : UTC 2013-01-21 22:43:57
Writing application : mkvmerge v5.8.0 ('No Sleep / Pillow') built on Sep 2 2012 15:37:04
Writing library : libebml v1.2.3 + libmatroska v1.3.0

Video
ID : 2
Format : AVC
Format/Info : Advanced Video Codec
Format profile : High@L4.1
Format settings, CABAC : Yes
Format settings, ReFrames : 5 frames
Codec ID : V_MPEG4/ISO/AVC
Duration : 24mn 59s
Bit rate : 4 053 Kbps
Width : 1 280 pixels
Height : 720 pixels
Display aspect ratio : 16:9
Frame rate mode : Constant
Frame rate : 29.970 fps
Color space : YUV
Chroma subsampling : 4:2:0
Bit depth : 8 bits
Scan type : Progressive
Bits/(Pixel*Frame) : 0.147
Stream size : 724 MiB (90%)
Writing library : x264 core 129 r2230 1cffe9f
Encoding settings : cabac=1 / ref=5 / deblock=1:1:1 / analyse=0x3:0x133 / me=esa / subme=10 / psy=1 / psy_rd=1.00:0.00 / mixed_ref=0 / me_range=24 / chroma_me=1 / trellis=2 / 8x8dct=1 / cqm=0 / deadzone=21,11 / fast_pskip=0 / chroma_qp_offset=-2 / threads=18 / lookahead_threads=3 / sliced_threads=0 / nr=0 / decimate=1 / interlaced=0 / bluray_compat=0 / constrained_intra=0 / bframes=16 / b_pyramid=2 / b_adapt=2 / b_bias=0 / direct=3 / weightb=1 / open_gop=0 / weightp=2 / keyint=360 / keyint_min=35 / scenecut=40 / intra_refresh=0 / rc_lookahead=50 / rc=crf / mbtree=1 / crf=17.0 / qcomp=0.60 / qpmin=0 / qpmax=69 / qpstep=4 / ip_ratio=1.40 / aq=1:1.00
Language : English
Default : Yes
Forced : No

Audio
ID : 1
Format : AC-3
Format/Info : Audio Coding 3
Mode extension : CM (complete main)
Format settings, Endianness : Big
Codec ID : A_AC3
Duration : 24mn 59s
Bit rate mode : Constant
Bit rate : 384 Kbps
Channel(s) : 6 channels
Channel positions : Front: L C R, Side: L R, LFE
Sampling rate : 48.0 KHz
Bit depth : 16 bits
Compression mode : Lossy
Delay relative to video : 12ms
Stream size : 68.6 MiB (8%)
Default : Yes
Forced : No

Menu
00:00:00.000 : en:01. Intro + Little Broken Hearts
00:03:32.100 : en:02. Say Goodbye
00:07:07.200 : en:03. Take It Back
00:11:30.100 : en:04. Miriam
00:16:30.200 : en:05. Stuck
00:23:30.100 : en:06. Stage Exit
00:23:44.100 : en:07. Interview
Any questions - support@pro-jazz.com. Есть вопросы - support@pro-jazz.com
49
Нет комментариев. Ваш будет первым!