Вы используете незарегистрированную версию компонента "Вкладки"!

Поиск

2013 Jazz Masters All Stars - 44 Internationale Jazzwoche Burghausen [HDTV 720p]

2013 Jazz Masters All Stars - 44 Internationale Jazzwoche Burghausen [HDTV 720p]
Стиль:
Состав:
Описание:

Дата записи концерта: 14 марта 2013
Время звучания: 01:26:21

Доп. инфо: 44. Internationale Jazzwoche Burghausen, Wackerhalle, Germany, March 14, 2013
Источник: Digital Satellite > SkyStar HD2 (TechniSat) > raw data to HDD > Cypheros TS-Doctor > ts
Релизёр (источник): readab
Качество: HDTVRip
Контейнер: TS/M2TS
Видео кодек: h.264
Аудио кодек: AC3
Видео: 12.4 Mbps, 1280*720 (16:9), at 50.000 fps, AVC (High@L4.0) (CABAC / 6 Ref Frames)
Аудио 1: German, 256 Kbps, 48.0 KHz, 2 channels, MPEG Audio (Version 1) (Layer 2)
Аудио 2: 192 Kbps, 48.0 KHz, 2 channels, MPEG Audio (Version 1) (Layer 2)
Аудио 3: German, 448 Kbps, 48.0 KHz, 16 bits, 2 channels, AC-3
Аудио 4: Multiple languages, 192 Kbps, 48.0 KHz, 2 channels, MPEG Audio (Version 1) (Layer 2)

 
Скриншоты

Отчёт DVDInfo/MediaInfo/BDInfo
General
ID : 8900 (0x22C4)
Complete name : C:\rutracker.org_HD\3sat HD_Jazz Masters All Stars - Jazzwoche Burghausen 2013.ts
Format : MPEG-TS
File size : 8.55 GiB
Duration : 1h 26mn
Overall bit rate mode : Variable
Overall bit rate : 14.2 Mbps
Video
ID : 6510 (0x196E)
Menu ID : 11150 (0x2B8E)
Format : AVC
Format/Info : Advanced Video Codec
Format profile : High@L4.0
Format settings, CABAC : Yes
Format settings, ReFrames : 6 frames
Format settings, GOP : M=4, N=33
Codec ID : 27
Duration : 1h 26mn
Bit rate : 12.4 Mbps
Width : 1 280 pixels
Height : 720 pixels
Display aspect ratio : 16:9
Frame rate : 50.000 fps
Color space : YUV
Chroma subsampling : 4:2:0
Bit depth : 8 bits
Scan type : Progressive
Bits/(Pixel*Frame) : 0.269
Stream size : 7.47 GiB (87%)
Color primaries : BT.709
Transfer characteristics : BT.709
Matrix coefficients : BT.709
Audio #1
ID : 6520 (0x1978)
Menu ID : 11150 (0x2B8E)
Format : MPEG Audio
Format version : Version 1
Format profile : Layer 2
Codec ID : 3
Duration : 1h 26mn
Bit rate mode : Constant
Bit rate : 256 Kbps
Channel(s) : 2 channels
Sampling rate : 48.0 KHz
Compression mode : Lossy
Delay relative to video : -569ms
Stream size : 158 MiB (2%)
Language : German
Audio #2
ID : 6521 (0x1979)
Menu ID : 11150 (0x2B8E)
Format : MPEG Audio
Format version : Version 1
Format profile : Layer 2
Codec ID : 3
Duration : 1h 26mn
Bit rate mode : Constant
Bit rate : 192 Kbps
Channel(s) : 2 channels
Sampling rate : 48.0 KHz
Compression mode : Lossy
Delay relative to video : -449ms
Stream size : 119 MiB (1%)
Audio #3
ID : 6522 (0x197A)
Menu ID : 11150 (0x2B8E)
Format : AC-3
Format/Info : Audio Coding 3
Mode extension : CM (complete main)
Format settings, Endianness : Big
Codec ID : 6
Duration : 1h 26mn
Bit rate mode : Constant
Bit rate : 448 Kbps
Channel(s) : 2 channels
Channel positions : Front: L R
Sampling rate : 48.0 KHz
Bit depth : 16 bits
Compression mode : Lossy
Delay relative to video : -574ms
Stream size : 277 MiB (3%)
Language : German
Audio #4
ID : 6523 (0x197B)
Menu ID : 11150 (0x2B8E)
Format : MPEG Audio
Format version : Version 1
Format profile : Layer 2
Codec ID : 3
Duration : 1h 26mn
Bit rate mode : Constant
Bit rate : 192 Kbps
Channel(s) : 2 channels
Sampling rate : 48.0 KHz
Compression mode : Lossy
Delay relative to video : -489ms
Stream size : 119 MiB (1%)
Language : Multiple languages
Any questions - support@pro-jazz.com. Есть вопросы - support@pro-jazz.com
1327
Нет комментариев. Ваш будет первым!