Поиск

2013 Jamie Cullum - Leverkusener Jazztage [HDTV 720p]

2013 Jamie Cullum - Leverkusener Jazztage [HDTV 720p]
Стиль:
Дата проведения концерта (записи):
15 ноября 2013
Место проведения:
34. Leverkusener Jazztage, Germany
Время звучания:
01:59:28
Главы (разбивка по трекам):
нет
Качество:
HDTV
Контейнер:
TS
Состав:
  • JAMIE CULLUM - vocals, keyboards
  • RORY SIMMONS - guitar, trumpet, vocals
  • LOZ GARRATT - bass, vocals
  • TOM RICHARDS - saxophone, keyboards, vocals
  • BRAD WEBB - drums, vocals
Треклист:

01. The Same Things
02. Get Your Way
03. I'm All Over It
04. Everything You Didn't Do
05. Just One Of Those Things
06. Standing Still
07. You're Not The Only One
08. Pure Imagination
09. I Could Have Danced All Night / Get Lucky
10. Love For Sale
11. When I Get Famous
12. Don't Stop The Music
13. Everlasting Love
14. All At Sea
15. These Are The Days
16. Twentysomething
17. Mixtape
18. Gran Torino

Видео:
7 023 Kbps, 1280*720 (16:9), at 50.000 fps, AVC (High@L4.0) (CABAC / 4 Ref Frames)
Аудио#1:
German, 192 Kbps, 48.0 KHz, 2 channels, MPEG Audio (Version 1) (Layer 2)
Аудио#2:
192 Kbps, 48.0 KHz, 2 channels, MPEG Audio (Version 1) (Layer 2)
Аудио#3:
German, 448 Kbps, 48.0 KHz, 16 bits, 2 channels, AC-3
Описание:

Источник: Digital Satellite > SkyStar HD2 (TechniSat) > raw data to HDD > Cypheros TS-Doctor > VideoReDo TVSuite v4 (cut) > ts

Отчёт DVDInfo/MediaInfo/BDInfo
General
ID : 1 (0x1)
Complete name : C:\rutracker.org_HD\WDR HD_Jamie Cullum - Leverkusener Jazztage 2013.ts
Format : MPEG-TS
File size : 6.90 GiB
Duration : 1h 59mn
Overall bit rate mode : Variable
Overall bit rate : 8 273 Kbps
Video
ID : 5501 (0x157D)
Menu ID : 1 (0x1)
Format : AVC
Format/Info : Advanced Video Codec
Format profile : High@L4.0
Format settings, CABAC : Yes
Format settings, ReFrames : 4 frames
Codec ID : 27
Duration : 1h 59mn
Bit rate : 7 023 Kbps
Width : 1 280 pixels
Height : 720 pixels
Display aspect ratio : 16:9
Frame rate : 50.000 fps
Color space : YUV
Chroma subsampling : 4:2:0
Bit depth : 8 bits
Scan type : Progressive
Bits/(Pixel*Frame) : 0.152
Stream size : 5.86 GiB (85%)
Audio #1
ID : 5502 (0x157E)
Menu ID : 1 (0x1)
Format : MPEG Audio
Format version : Version 1
Format profile : Layer 2
Codec ID : 3
Duration : 1h 59mn
Bit rate mode : Constant
Bit rate : 192 Kbps
Channel(s) : 2 channels
Sampling rate : 48.0 KHz
Compression mode : Lossy
Stream size : 164 MiB (2%)
Language : German
Audio #2
ID : 5503 (0x157F)
Menu ID : 1 (0x1)
Format : MPEG Audio
Format version : Version 1
Format profile : Layer 2
Codec ID : 3
Duration : 1h 59mn
Bit rate mode : Constant
Bit rate : 192 Kbps
Channel(s) : 2 channels
Sampling rate : 48.0 KHz
Compression mode : Lossy
Stream size : 164 MiB (2%)
Audio #3
ID : 5506 (0x1582)
Menu ID : 1 (0x1)
Format : AC-3
Format/Info : Audio Coding 3
Mode extension : CM (complete main)
Format settings, Endianness : Big
Codec ID : 6
Duration : 1h 59mn
Bit rate mode : Constant
Bit rate : 448 Kbps
Channel(s) : 2 channels
Channel positions : Front: L R
Sampling rate : 48.0 KHz
Bit depth : 16 bits
Compression mode : Lossy
Stream size : 383 MiB (5%)
Language : German
По всем вопросам пишите личное сообщение пользователю M0p94ok.
24
Нет комментариев. Ваш будет первым!