Поиск

2013 Helge Lien Trio - at The Tokyo Jazz Festival [HDTV 1080p]

2013 Helge Lien Trio - at The Tokyo Jazz Festival [HDTV 1080p]
Стиль:
Дата проведения концерта (записи):
13 ноября 2013
Место проведения:
Leverkusener Jazztage
Время звучания:
00:59:22
Главы (разбивка по трекам):
нет
Качество:
HDTV
Контейнер:
MP4
Состав:
  • Helge Lien - piano
  • Frode Berg - bass
  • Per Oddvar Johansen - drums
Видео:
1920x1080 (16:9), 25.00 fps, AVC, 9346 Кбит, 0.179 bits/pixel
Аудио#1:
48.0 KHz, AAC-LC, 2 ch, stereo, 128-384 Kbps VBR
Дополнительная информация:

This album is available on our DC++ hub:
Этот альбом доступен на нашем DC++ хабе:
dchub://hub.pro-jazz.com:7777

Отчёт DVDInfo/MediaInfo/BDInfo
Полное имя : Helge Lien Trio\Helge Lien Trio - At The Tokyo Jazz Festival 2013.mp4
Формат : MPEG-4
Профиль формата : Base Media / Version 2
Идентификатор кодека : mp42
Размер файла : 4,21 Гбайт
Продолжительность : 59 м.
Режим общего битрейта : Переменный
Общий поток : 10,1 Мбит/сек
Дата кодирования : UTC 2014-02-04 07:52:55
Дата пометки : UTC 2014-02-04 07:52:55
Видео
Идентификатор : 2
Формат : AVC
Формат/Информация : Advanced Video Codec
Профиль формата : Main@L4.1
Параметр CABAC формата : Да
Параметр ReFrames формата : 2 кадра
Параметр GOP формата : M=3, N=30
Идентификатор кодека : avc1
Идентификатор кодека/Информация : Advanced Video Coding
Продолжительность : 59 м.
Продолжительность оригинала : 59 м.
Вид битрейта : Переменный
Битрейт : 9346 Кбит/сек
Максимальный битрейт : 10,0 Мбит/сек
Ширина : 1920 пикселей
Высота : 1088 пикселей
Высота оригинала : 1080 пикселей
Соотношение сторон : 16:9
Соотношение сторон в оригинале : 16:9
Режим частоты кадров : Постоянный
Частота кадров : 25,000 кадров/сек
Частота кадров в оригинале : 12,500 кадров/сек
Цветовое пространство : YUV
Субдискретизация насыщенности : 4:2:0
Битовая глубина : 8 бит
Тип развёртки : Прогрессивная
Бит/(Пиксели*Кадры) : 0.179
Размер потока : 3,88 Гбайт (92%)
Размер потока оригинала : 4,04 Гбайт (96%)
Язык : English
Дата кодирования : UTC 2014-02-04 07:52:55
Дата пометки : UTC 2014-02-04 07:52:55
Аудио
Идентификатор : 1
Формат : AAC
Формат/Информация : Advanced Audio Codec
Профиль формата : LC
Идентификатор кодека : 40
Продолжительность : 59 м.
Продолжительность оригинала : 59 м.
Вид битрейта : Постоянный
Битрейт : 384 Кбит/сек
Номинальный битрейт : 128 Кбит/сек
Каналы : 2 канала
Расположение каналов : Front: L R
Частота : 48,0 КГц
Метод сжатия : С потерями
Размер потока : 163 Мбайт (4%)
Размер потока оригинала : 163 Мбайт (4%)
Язык : English
Дата кодирования : UTC 2014-02-04 07:52:55
Дата пометки : UTC 2014-02-04 07:52:55
mdhd_Duration : 3562213
Any questions - support@pro-jazz.com
To become a power user - read FAQ.
106
Нет комментариев. Ваш будет первым!