Поиск

2013 Goran Kajfes Subtropic Arkestra - At The Stockholm Jazz Festival [HDTV 1080p]

2013 Goran Kajfes Subtropic Arkestra - At The Stockholm Jazz Festival [HDTV 1080p]
Стиль:
Место проведения:
The Stockholm Jazz Festival
Время звучания:
00:56:05
Главы (разбивка по трекам):
нет
Качество:
HDTV
Контейнер:
MP4
Состав:
  • Goran Kajfes - trumpet
  • Jonas Kullhammar - saxophone, flute
  • Per "Rusktrask" Johansson - saxophone, flute
  • Jesper Nordenstrom - organ
  • Andreas Soderstrom - guitar
  • Johan Berthlins - bass
  • Johan Holmegard - trumpet
Видео:
1920x1080 (16:9), 25.00 fps, AVC, 9127 Кбит, 0.175 bits/pixel
Аудио#1:
48.0 KHz, AAC-LC, 2 ch, stereo, 128-384 Kbps VBR
Описание:

Стокгольмский джазовый фестиваль — один из старейших фестивалей Швеции и крупнейшее джазовое событие в Стокгольме. Стокгольмский джазовый фестиваль имеет солидную репутацию в музыкальном мире и считается одним из самых ухоженных и дружелюбных фестивалей, который долгое время был своим домом на острове Скеппсхольмен. С переездом в Скансен в 2011 году мы начали путешествие в будущее.
В 2012 году фестиваль приземлился в помещении, на лучших площадках Стокгольма. Фестиваль переехал в Концертный зал (Konserthusert), Дом культуры (Kulturhuset) и, конечно же, в джаз-клуб Fasching. Но на этом все не остановилось!
2012 год стал годом, когда фестиваль распространился почти на 20 "площадок-спутников" по всему Стокгольму и еще на множество других по всей стране!
Сейчас на дворе 2013 год, и мы с нетерпением ждем нового грандиозного фестиваля. Это будет настоящая манифестация джаза. Семь дней, более двадцати площадок, наполненных лучшим джазом!

Отчёт DVDInfo/MediaInfo/BDInfo
Полное имя : G:\DVD\Goran Kajfes Subtropic Arkestra - ATSJF 2013\Goran Kajfes Subtropic Arkestra - At The Stockholm Jazz Festival 2013.mp4
Формат : MPEG-4
Профиль формата : Base Media / Version 2
Идентификатор кодека : mp42
Размер файла : 3,73 Гбайт
Продолжительность : 56 м.
Общий поток : 9515 Кбит/сек
Дата кодирования : UTC 2014-01-01 05:57:37
Дата пометки : UTC 2014-01-01 05:57:37
Видео
Идентификатор : 2
Формат : AVC
Формат/Информация : Advanced Video Codec
Профиль формата : Main@L4.0
Параметр CABAC формата : Да
Параметр ReFrames формата : 2 кадра
Идентификатор кодека : avc1
Идентификатор кодека/Информация : Advanced Video Coding
Продолжительность : 56 м.
Вид битрейта : Переменный
Битрейт : 9127 Кбит/сек
Максимальный битрейт : 9001 Кбит/сек
Ширина : 1920 пикселей
Высота : 1088 пикселей
Высота оригинала : 1080 пикселей
Соотношение сторон : 16:9
Соотношение сторон в оригинале : 16:9
Режим частоты кадров : Постоянный
Частота кадров : 25,000 кадров/сек
Частота кадров в оригинале : 12,500 кадров/сек
Цветовое пространство : YUV
Субдискретизация насыщенности : 4:2:0
Битовая глубина : 8 бит
Тип развёртки : Прогрессивная
Бит/(Пиксели*Кадры) : 0.175
Размер потока : 3,58 Гбайт (96%)
Язык : English
Дата кодирования : UTC 2014-01-01 05:57:37
Дата пометки : UTC 2014-01-01 05:57:37
Аудио
Идентификатор : 1
Формат : AAC
Формат/Информация : Advanced Audio Codec
Профиль формата : LC
Идентификатор кодека : 40
Продолжительность : 56 м.
Вид битрейта : Постоянный
Битрейт : 384 Кбит/сек
Номинальный битрейт : 128 Кбит/сек
Каналы : 2 канала
Расположение каналов : Front: L R
Частота : 48,0 КГц
Метод сжатия : С потерями
Размер потока : 154 Мбайт (4%)
Язык : English
Дата кодирования : UTC 2014-01-01 05:57:37
Дата пометки : UTC 2014-01-01 05:57:37
По всем вопросам пишите личное сообщение пользователю M0p94ok.
116
Нет комментариев. Ваш будет первым!