Вы используете незарегистрированную версию компонента "Вкладки"!

Поиск

2013 Cindy Blackman-Santana & Band - at Leverkusener Jazztage [HDTV 720p]

2013 Cindy Blackman-Santana & Band - at Leverkusener Jazztage [HDTV 720p]
Стиль:
Дата проведения концерта (записи):
14 ноября 2013
Место проведения:
Leverkusener Jazztage, Germany
Время звучания:
00:57:43
Главы (разбивка по трекам):
нет
Качество:
HDTV
Контейнер:
TS
Состав:
  • Cindy Blackman-Santana - drums, vocals (4)
  • Rashaan Carter - bass
  • Aurelien Budynek - guitar
  • Zaccai Curtis - keyboards
Треклист:

1. Vuelta Abajo
2. Hittin' On 6
3. Portia
4. Where

Видео:
6 211 Kbps, 1280*720 (16:9), at 50.000 fps, AVC (High@L4.0) (CABAC / 4 Ref Frames)
Аудио#1:
German, 192 Kbps, 48.0 KHz, 2 channels, MPEG Audio (Version 1) (Layer 2)
Аудио#2:
192 Kbps, 48.0 KHz, 2 channels, MPEG Audio (Version 1) (Layer 2)
Аудио#3:
German, 448 Kbps, 48.0 KHz, 16 bits, 2 channels, AC-3
Отчёт DVDInfo/MediaInfo/BDInfo
General
ID : 1 (0x1)
Complete name : C:\rutracker.org_HD\WDR HD_Cindy Blackman Santana & Band - Leverkusener Jazztage 2013.ts
Format : MPEG-TS
File size : 2.99 GiB
Duration : 57mn 43s
Overall bit rate mode : Variable
Overall bit rate : 7 418 Kbps
Video
ID : 5501 (0x157D)
Menu ID : 1 (0x1)
Format : AVC
Format/Info : Advanced Video Codec
Format profile : High@L4.0
Format settings, CABAC : Yes
Format settings, ReFrames : 4 frames
Codec ID : 27
Duration : 57mn 43s
Bit rate : 6 211 Kbps
Width : 1 280 pixels
Height : 720 pixels
Display aspect ratio : 16:9
Frame rate : 50.000 fps
Color space : YUV
Chroma subsampling : 4:2:0
Bit depth : 8 bits
Scan type : Progressive
Bits/(Pixel*Frame) : 0.135
Stream size : 2.50 GiB (84%)
Audio #1
ID : 5502 (0x157E)
Menu ID : 1 (0x1)
Format : MPEG Audio
Format version : Version 1
Format profile : Layer 2
Codec ID : 3
Duration : 57mn 43s
Bit rate mode : Constant
Bit rate : 192 Kbps
Channel(s) : 2 channels
Sampling rate : 48.0 KHz
Compression mode : Lossy
Stream size : 79.3 MiB (3%)
Language : German
Audio #2
ID : 5503 (0x157F)
Menu ID : 1 (0x1)
Format : MPEG Audio
Format version : Version 1
Format profile : Layer 2
Codec ID : 3
Duration : 57mn 43s
Bit rate mode : Constant
Bit rate : 192 Kbps
Channel(s) : 2 channels
Sampling rate : 48.0 KHz
Compression mode : Lossy
Stream size : 79.3 MiB (3%)
Audio #3
ID : 5506 (0x1582)
Menu ID : 1 (0x1)
Format : AC-3
Format/Info : Audio Coding 3
Mode extension : CM (complete main)
Format settings, Endianness : Big
Codec ID : 6
Duration : 57mn 43s
Bit rate mode : Constant
Bit rate : 448 Kbps
Channel(s) : 2 channels
Channel positions : Front: L R
Sampling rate : 48.0 KHz
Bit depth : 16 bits
Compression mode : Lossy
Stream size : 185 MiB (6%)
Language : German
Any questions - support@pro-jazz.com.
Есть вопросы - support@pro-jazz.com
40
Нет комментариев. Ваш будет первым!