Вы используете незарегистрированную версию компонента "Вкладки"!

Поиск

2013 Cedar Walton Trio - Live at Jazz a Foix [HDTV 1080i]

2013 Cedar Walton Trio - Live at Jazz a Foix [HDTV 1080i]
Стиль:
Главы (разбивка по трекам):
нет
Качество:
HDTVRip
Контейнер:
MP4
Состав:
  • Cedar Walton - piano
  • David Williams - contrebasse
  • Willie Jones III - batterie
Треклист:
  1. Cedar Blues
  2. Lament
  3. On The Trail
  4. Blue Monk
  5. Concerto d'Aranjuez
  6. Without a Song
Видео:
1920x1080 (16:9), 25.00 fps, AVC, 8931 Кбит, 0.171 bits/pixel
Аудио#1:
48.0 KHz, AAC-LC, 2 ch, stereo, 128-384 Kbps VBR
Отчёт DVDInfo/MediaInfo/BDInfo
Полное имя : G:\DVD\Cedar Walton Trio - LaJaF 2013\Cedar Walton Trio - Live at Jazz a Foix 2013.mp4
Формат : MPEG-4
Профиль формата : Base Media / Version 2
Идентификатор кодека : mp42
Размер файла : 3,96 Гбайт
Продолжительность : 1 ч. 0 м.
Общий поток : 9319 Кбит/сек
Дата кодирования : UTC 2013-12-17 09:26:37
Дата пометки : UTC 2013-12-17 09:26:37
Видео
Идентификатор : 2
Формат : AVC
Формат/Информация : Advanced Video Codec
Профиль формата : Main@L4.0
Параметр CABAC формата : Да
Параметр ReFrames формата : 2 кадра
Идентификатор кодека : avc1
Идентификатор кодека/Информация : Advanced Video Coding
Продолжительность : 1 ч. 0 м.
Вид битрейта : Переменный
Битрейт : 8931 Кбит/сек
Максимальный битрейт : 9001 Кбит/сек
Ширина : 1920 пикселей
Высота : 1088 пикселей
Высота оригинала : 1080 пикселей
Соотношение сторон : 16:9
Соотношение сторон в оригинале : 16:9
Режим частоты кадров : Постоянный
Частота кадров : 25,000 кадров/сек
Частота кадров в оригинале : 12,500 кадров/сек
Цветовое пространство : YUV
Субдискретизация насыщенности : 4:2:0
Битовая глубина : 8 бит
Тип развёртки : Прогрессивная
Бит/(Пиксели*Кадры) : 0.171
Размер потока : 3,79 Гбайт (96%)
Язык : English
Дата кодирования : UTC 2013-12-17 09:26:37
Дата пометки : UTC 2013-12-17 09:26:37
Аудио
Идентификатор : 1
Формат : AAC
Формат/Информация : Advanced Audio Codec
Профиль формата : LC
Идентификатор кодека : 40
Продолжительность : 1 ч. 0 м.
Вид битрейта : Постоянный
Битрейт : 384 Кбит/сек
Номинальный битрейт : 128 Кбит/сек
Каналы : 2 канала
Расположение каналов : Front: L R
Частота : 48,0 КГц
Метод сжатия : С потерями
Размер потока : 167 Мбайт (4%)
Язык : English
Дата кодирования : UTC 2013-12-17 09:26:37
Дата пометки : UTC 2013-12-17 09:26:37
Any questions - support@pro-jazz.com.
Есть вопросы - support@pro-jazz.com
92
Нет комментариев. Ваш будет первым!