Поиск

2013 Candy Dulfer - at Leverkusener Jazztage [HDTV 720p]

2013 Candy Dulfer - at Leverkusener Jazztage [HDTV 720p]
Стиль:
Дата проведения концерта (записи):
10 ноября 2013
Место проведения:
34th Leverkusener Jazztage, Germany
Время звучания:
00:59:14
Главы (разбивка по трекам):
нет
Качество:
HDTV
Контейнер:
TS
Состав:
  • Candy Dulfer - alto sax, vocals
  • Ulco Bed - guitar
  • Manuel Hugas - bass
  • Dj Kikke - DJ, drums
  • Andy Ninvalle - rapper/MC
  • Ricardo "Phatt" Burgrust - vocals
Треклист:

1. Crazy
2. What u Do (When The Music Hits)
3. Lily Was Here
4. Mix
5. Full Moon
6. Pick Up The Pieces
7. P-Funk Medley

Видео:
AVC High@L4.0, 1280x720 (16:9), 12.4 Mbps, 50 fps
Аудио#1:
AC3 448 Kbps 2 ch / MP2 256 Kbps 2 ch
Описание:

Кэнди Дюльфер со своей группой выступает на 34-м фестивале Leverkusener Jazztage, 10 ноября 2013 года, Германия.

Голландская икона джаза Кэнди Дюльфер буквально родилась с саксофоном: Ее отец Ханс, успешный саксофонист, подарил ей первый инструмент, когда Кэнди было всего шесть лет. После нескольких лет работы и бесчисленных джем-сейшенов Кэнди основала свою первую группу "Funky Material" в возрасте 14 лет и вызвала немалый ажиотаж на голландской музыкальной сцене. В середине восьмидесятых ее пригласили поддержать Мадонну в Роттердаме. Затем последовали годы успешного сотрудничества с мегазвездой Принсом. Сотрудничество с Дэйвом Стюартом (Eurythmics), заглавная песня к фильму "Lily Was Here", стало ее международным прорывом. В 1990 году вышел первый сольный альбом Дюльфера "Saxuality". С тех пор она регулярно выпускает новые альбомы с участием таких гостей, как Масео Паркер, Ван Моррисон, Дэйв Стюарт, соул-дива Энджи Штайн и ее отец Ханс Дюльфер. Теперь она вернулась со своим десятым альбомом "Crazy" и снова доведет толпу в Леверкузене до кипения своим горячим фанковым звучанием.

Отчёт DVDInfo/MediaInfo/BDInfo
General
ID : 8900 (0x22C4)
Complete name : C:\rutracker.org_HD\3sat HD_Candy Dulfer & Band - Leverkusener Jazztage 2013.ts
Format : MPEG-TS
File size : 5.90 GiB
Duration : 59mn 14s
Overall bit rate mode : Variable
Overall bit rate : 14.2 Mbps
Video
ID : 6510 (0x196E)
Menu ID : 11150 (0x2B8E)
Format : AVC
Format/Info : Advanced Video Codec
Format profile : High@L4.0
Format settings, CABAC : Yes
Format settings, ReFrames : 6 frames
Codec ID : 27
Duration : 59mn 14s
Bit rate : 12.4 Mbps
Width : 1 280 pixels
Height : 720 pixels
Display aspect ratio : 16:9
Frame rate : 50.000 fps
Color space : YUV
Chroma subsampling : 4:2:0
Bit depth : 8 bits
Scan type : Progressive
Bits/(Pixel*Frame) : 0.270
Stream size : 5.15 GiB (87%)
Color primaries : BT.709
Transfer characteristics : BT.709
Matrix coefficients : BT.709
Audio #1
ID : 6520 (0x1978)
Menu ID : 11150 (0x2B8E)
Format : MPEG Audio
Format version : Version 1
Format profile : Layer 2
Codec ID : 3
Duration : 59mn 14s
Bit rate mode : Constant
Bit rate : 256 Kbps
Channel(s) : 2 channels
Sampling rate : 48.0 KHz
Compression mode : Lossy
Delay relative to video : 49ms
Stream size : 108 MiB (2%)
Language : German
Audio #2
ID : 6521 (0x1979)
Menu ID : 11150 (0x2B8E)
Format : MPEG Audio
Format version : Version 1
Format profile : Layer 2
Codec ID : 3
Duration : 59mn 14s
Bit rate mode : Constant
Bit rate : 192 Kbps
Channel(s) : 2 channels
Sampling rate : 48.0 KHz
Compression mode : Lossy
Delay relative to video : 49ms
Stream size : 81.4 MiB (1%)
Audio #3
ID : 6522 (0x197A)
Menu ID : 11150 (0x2B8E)
Format : AC-3
Format/Info : Audio Coding 3
Mode extension : CM (complete main)
Format settings, Endianness : Big
Codec ID : 6
Duration : 59mn 14s
Bit rate mode : Constant
Bit rate : 448 Kbps
Channel(s) : 2 channels
Channel positions : Front: L R
Sampling rate : 48.0 KHz
Bit depth : 16 bits
Compression mode : Lossy
Delay relative to video : 89ms
Stream size : 190 MiB (3%)
Language : German
Audio #4
ID : 6523 (0x197B)
Menu ID : 11150 (0x2B8E)
Format : MPEG Audio
Format version : Version 1
Format profile : Layer 2
Codec ID : 3
Duration : 59mn 14s
Bit rate mode : Constant
Bit rate : 192 Kbps
Channel(s) : 2 channels
Sampling rate : 48.0 KHz
Compression mode : Lossy
Delay relative to video : 89ms
Stream size : 81.4 MiB (1%)
Language : Multiple languages
По всем вопросам пишите личное сообщение пользователю M0p94ok.
154
Нет комментариев. Ваш будет первым!