Вы используете незарегистрированную версию компонента "Вкладки"!

Поиск

2013 Bob James, David Sanborn & Steve Gadd - at Leverkusener Jazztage [HDTV 720p]

2013 Bob James, David Sanborn & Steve Gadd - at Leverkusener Jazztage [HDTV 720p]
Дата проведения концерта (записи):
14 ноября 2013
Место проведения:
Leverkusen, Germany
Время звучания:
00:59:38
Главы (разбивка по трекам):
есть
Качество:
HDTV
Контейнер:
TS
Состав:
Треклист:

1. Montezuma
2. More Than Friends
3. You Better Not Go To College
4. Sofia
5. Deep In The Weeds
6. Maputo

Видео:
AVC (High@L4.0) (CABAC / 6 Ref Frames), 11.6 Mbps, 1280*720 (16:9), 50.000 fps
Аудио#1:
German, 256 Kbps, 48.0 KHz, 2 channels, MPEG Audio (Version 1) (Layer 2)
Аудио#2:
192 Kbps, 48.0 KHz, 2 channels, MPEG Audio (Version 1) (Layer 2)
Аудио#3:
German, 448 Kbps, 48.0 KHz, 16 bits, 2 channels, AC-3
Отчёт DVDInfo/MediaInfo/BDInfo
General
ID : 1 (0x1)
Complete name : C:\rutracker.org_HD\3sat HD_Bob James, David Sanborn & Steve Gadd - Leverkusener Jazztage 2013.ts
Format : MPEG-TS
File size : 5.58 GiB
Duration : 59mn 38s
Overall bit rate mode : Variable
Overall bit rate : 13.4 Mbps
Video
ID : 6510 (0x196E)
Menu ID : 1 (0x1)
Format : AVC
Format/Info : Advanced Video Codec
Format profile : High@L4.0
Format settings, CABAC : Yes
Format settings, ReFrames : 6 frames
Codec ID : 27
Duration : 59mn 38s
Bit rate : 11.6 Mbps
Width : 1 280 pixels
Height : 720 pixels
Display aspect ratio : 16:9
Frame rate : 50.000 fps
Color space : YUV
Chroma subsampling : 4:2:0
Bit depth : 8 bits
Scan type : Progressive
Bits/(Pixel*Frame) : 0.252
Stream size : 4.84 GiB (87%)
Color primaries : BT.709
Transfer characteristics : BT.709
Matrix coefficients : BT.709
Audio #1
ID : 6520 (0x1978)
Menu ID : 1 (0x1)
Format : MPEG Audio
Format version : Version 1
Format profile : Layer 2
Codec ID : 3
Duration : 59mn 38s
Bit rate mode : Constant
Bit rate : 256 Kbps
Channel(s) : 2 channels
Sampling rate : 48.0 KHz
Compression mode : Lossy
Stream size : 109 MiB (2%)
Language : German
Audio #2
ID : 6521 (0x1979)
Menu ID : 1 (0x1)
Format : MPEG Audio
Format version : Version 1
Format profile : Layer 2
Codec ID : 3
Duration : 59mn 38s
Bit rate mode : Constant
Bit rate : 192 Kbps
Channel(s) : 2 channels
Sampling rate : 48.0 KHz
Compression mode : Lossy
Stream size : 81.9 MiB (1%)
Audio #3
ID : 6522 (0x197A)
Menu ID : 1 (0x1)
Format : AC-3
Format/Info : Audio Coding 3
Mode extension : CM (complete main)
Format settings, Endianness : Big
Codec ID : 6
Duration : 59mn 38s
Bit rate mode : Constant
Bit rate : 448 Kbps
Channel(s) : 2 channels
Channel positions : Front: L R
Sampling rate : 48.0 KHz
Bit depth : 16 bits
Compression mode : Lossy
Stream size : 191 MiB (3%)
Language : German
Audio #4
ID : 6523 (0x197B)
Menu ID : 1 (0x1)
Format : MPEG Audio
Format version : Version 1
Format profile : Layer 2
Codec ID : 3
Duration : 59mn 38s
Bit rate mode : Constant
Bit rate : 192 Kbps
Channel(s) : 2 channels
Sampling rate : 48.0 KHz
Compression mode : Lossy
Stream size : 81.9 MiB (1%)
Language : Multiple languages
Any questions - support@pro-jazz.com.
Есть вопросы - support@pro-jazz.com
145
Нет комментариев. Ваш будет первым!