Вы используете незарегистрированную версию компонента "Вкладки"!

Поиск

2012 Steve Kuhn Trio - Dans le Cadre du Festival Jazz a Folk [HDTV 1080p]

2012 Steve Kuhn Trio - Dans le Cadre du Festival Jazz a Folk [HDTV 1080p]
Место проведения:
Dans le Cadre du Festival Jazz a Folk
Время звучания:
00:53:05
Главы (разбивка по трекам):
нет
Качество:
HDTV
Контейнер:
MP4
Состав:
  • Steve Kuhn - piano
  • Steve Swallow - bass
  • Billy Drummond Batterie - drums
Треклист:

1. Two by two
2. Remember
3. Trance et / Oceans in the sky
4. Confimation
5. Zoo

Видео:
1920x1080 (16:9), 25.00 fps, AVC, 9050 Кбит, 0.173 bits/pixel
Аудио#1:
48.0 KHz, AAC-LC, 2 ch, stereo, 128-384 Kbps VBR
Отчёт DVDInfo/MediaInfo/BDInfo
Полное имя : G:\DVD\Steve Kuhn Trio - FJaF 2012\Steve Kuhn Trio - Dans le Cadre du Festival Jazz a Folk 2012.mp4
Формат : MPEG-4
Профиль формата : Base Media / Version 2
Идентификатор кодека : mp42
Размер файла : 3,50 Гбайт
Продолжительность : 53 м.
Общий поток : 9438 Кбит/сек
Дата кодирования : UTC 2013-12-15 08:08:03
Дата пометки : UTC 2013-12-15 08:08:03
Видео
Идентификатор : 2
Формат : AVC
Формат/Информация : Advanced Video Codec
Профиль формата : Main@L4.0
Параметр CABAC формата : Да
Параметр ReFrames формата : 2 кадра
Идентификатор кодека : avc1
Идентификатор кодека/Информация : Advanced Video Coding
Продолжительность : 53 м.
Вид битрейта : Переменный
Битрейт : 9050 Кбит/сек
Максимальный битрейт : 9001 Кбит/сек
Ширина : 1920 пикселей
Высота : 1088 пикселей
Высота оригинала : 1080 пикселей
Соотношение сторон : 16:9
Соотношение сторон в оригинале : 16:9
Режим частоты кадров : Постоянный
Частота кадров : 25,000 кадров/сек
Частота кадров в оригинале : 12,500 кадров/сек
Цветовое пространство : YUV
Субдискретизация насыщенности : 4:2:0
Битовая глубина : 8 бит
Тип развёртки : Прогрессивная
Бит/(Пиксели*Кадры) : 0.173
Размер потока : 3,36 Гбайт (96%)
Язык : English
Дата кодирования : UTC 2013-12-15 08:08:03
Дата пометки : UTC 2013-12-15 08:08:03
Аудио
Идентификатор : 1
Формат : AAC
Формат/Информация : Advanced Audio Codec
Профиль формата : LC
Идентификатор кодека : 40
Продолжительность : 53 м.
Вид битрейта : Постоянный
Битрейт : 384 Кбит/сек
Номинальный битрейт : 128 Кбит/сек
Каналы : 2 канала
Расположение каналов : Front: L R
Частота : 48,0 КГц
Метод сжатия : С потерями
Размер потока : 146 Мбайт (4%)
Язык : English
Дата кодирования : UTC 2013-12-15 08:08:03
Дата пометки : UTC 2013-12-15 08:08:03
Any questions - support@pro-jazz.com.
Есть вопросы - support@pro-jazz.com
85
Нет комментариев. Ваш будет первым!