Поиск

2012 Richard Bona Mandekan Cubano - Jazz a Vienne [HDTV 1080i]

2012 Richard Bona Mandekan Cubano - Jazz a Vienne [HDTV 1080i]
Место проведения:
Jazz a Vienne
Главы (разбивка по трекам):
нет
Качество:
HDTV
Контейнер:
TS
Состав:
  • Osmany Parredes - Piano
  • Luisito Quintero - Percussion
  • Roberto Quintero - Percussion
  • Mike Rodriguez - Trumpet
  • Ozzy Melendez - Trombone
  • Richard Bona - Bass and Vocals
Треклист:

01. Ekwa Mwato
02. Cubaneando
03. Bilongo
04. Mut Esukudu
05. Improvisation (Solo)
06. Janjo La Maya
07. Tumba La Nyama
08. Sen Sen Sen
09. Te Dikalo
10. Interview

Видео:
h.264,1920*1080i,~10Mbps,25fps
Аудио#1:
MPEG-Audio,256Kbps,48Hz,2ch
Отчёт DVDInfo/MediaInfo/BDInfo
20120630 0026 - Mezzo Live HD Richard Bona.ts
Format : MPEG-TS
File size : 6.44 GiB
Duration : 1h 23mn
Overall bit rate : 11.0 Mbps
Video #323
ID : 323 (0x143)
Menu ID : 14103 (0x3717)
Format : AVC
Format/Info : Advanced Video Codec
Format profile : Main@L4.0
Format settings, CABAC : Yes
Format settings, ReFrames : 3 frames
Duration : 1h 23mn
Bit rate : 9 960 Kbps
Width : 1 920 pixels
Height : 1 080 pixels
Display aspect ratio : 16:9
Frame rate : 25.000 fps
Standard : Component
Resolution : 24 bits
Colorimetry : 4:2:0
Scan type : Interlaced
Scan order : Top Field First
Bits/(Pixel*Frame) : 0.192
Stream size : 5.84 GiB (91%)
colour_primaries : BT.709-5, BT.1361, IEC 61966-2-4, SMPTE RP177
transfer_characteristics : BT.709-5, BT.1361
matrix_coefficients : BT.709-5, BT.1361, IEC 61966-2-4 709, SMPTE RP177
Audio #403
ID : 403 (0x193)
Menu ID : 14103 (0x3717)
Format : MPEG Audio
Format version : Version 1
Format profile : Layer 2
Duration : 1h 23mn
Bit rate mode : Constant
Bit rate : 256 Kbps
Channel(s) : 2 channels
Sampling rate : 48.0 KHz
Resolution : 16 bits
Video delay : -921ms
Stream size : 154 MiB (2%)
Language : French
Language, more info : Clean effects
Скриншоты видео
2012 Richard Bona Mandekan Cubano - Jazz a Vienne [HDTV 1080i] 02012 Richard Bona Mandekan Cubano - Jazz a Vienne [HDTV 1080i] 12012 Richard Bona Mandekan Cubano - Jazz a Vienne [HDTV 1080i] 2
По всем вопросам пишите личное сообщение пользователю M0p94ok.
462
Нет комментариев. Ваш будет первым!