Вы используете незарегистрированную версию компонента "Вкладки"!

Поиск

2012 Pierrick Pedron - at Jazz sous les Pommiers [HDTV 1080p]

2012 Pierrick Pedron - at Jazz sous les Pommiers [HDTV 1080p]
Стиль:
Дата проведения концерта (записи):
17 мая 2012
Место проведения:
Festival Jazz sous les Pommiers, France
Время звучания:
01:18:51
Главы (разбивка по трекам):
нет
Качество:
HDTV
Контейнер:
MP4
Состав:
  • Pierrick Pedron (saxophone)
  • Chris de Pauw (guitare)
  • Laurent Cog (piano)
  • Vincent Artaud (basse)
  • Fabrice Moreau (batterie)
Треклист:

01. Intro No 1
02. Intro No 2
03. Esox - Lucius
04. The Cloud
05. Miss falk's Dog
06. The Mists Of Time
07. Nonagone's Dance
08. 2010 White Boots
09. The Cheerleader's nde
10. Coupe 3 Toshiko
11. Val Andre

Видео:
1920x1080 (16:9), 25.00 fps, AVC, 8894 Кбит, 0.170 bits/pixel
Аудио#1:
48.0 KHz, AAC-LC, 2 ch, stereo, 128-384 Kbps VBR
Отчёт DVDInfo/MediaInfo/BDInfo
Полное имя : \\Pierrick Pedron\Pierrick Pedron - Jazz sous les Pommiers 2012.mp4
Формат : MPEG-4
Профиль формата : Base Media / Version 2
Идентификатор кодека : mp42
Размер файла : 5,11 Гбайт
Продолжительность : 1 ч. 18 м.
Общий поток : 9282 Кбит/сек
Дата кодирования : UTC 2013-12-08 12:01:12
Дата пометки : UTC 2013-12-08 12:01:12
Видео
Идентификатор : 2
Формат : AVC
Формат/Информация : Advanced Video Codec
Профиль формата : Main@L4.0
Параметр CABAC формата : Да
Параметр ReFrames формата : 2 кадра
Идентификатор кодека : avc1
Идентификатор кодека/Информация : Advanced Video Coding
Продолжительность : 1 ч. 18 м.
Вид битрейта : Переменный
Битрейт : 8894 Кбит/сек
Максимальный битрейт : 9001 Кбит/сек
Ширина : 1920 пикселей
Высота : 1088 пикселей
Высота оригинала : 1080 пикселей
Соотношение сторон : 16:9
Соотношение сторон в оригинале : 16:9
Режим частоты кадров : Постоянный
Частота кадров : 25,000 кадров/сек
Частота кадров в оригинале : 12,500 кадров/сек
Цветовое пространство : YUV
Субдискретизация насыщенности : 4:2:0
Битовая глубина : 8 бит
Тип развёртки : Прогрессивная
Бит/(Пиксели*Кадры) : 0.170
Размер потока : 4,90 Гбайт (96%)
Язык : English
Дата кодирования : UTC 2013-12-08 12:01:12
Дата пометки : UTC 2013-12-08 12:01:12
Аудио
Идентификатор : 1
Формат : AAC
Формат/Информация : Advanced Audio Codec
Профиль формата : LC
Идентификатор кодека : 40
Продолжительность : 1 ч. 18 м.
Вид битрейта : Постоянный
Битрейт : 384 Кбит/сек
Номинальный битрейт : 128 Кбит/сек
Каналы : 2 канала
Расположение каналов : Front: L R
Частота : 48,0 КГц
Метод сжатия : С потерями
Размер потока : 217 Мбайт (4%)
Язык : English
Дата кодирования : UTC 2013-12-08 12:01:12
Дата пометки : UTC 2013-12-08 12:01:12
Any questions - support@pro-jazz.com.
Есть вопросы - support@pro-jazz.com
71
Нет комментариев. Ваш будет первым!