Вы используете незарегистрированную версию компонента "Вкладки"!

Поиск

2012 Michel Portal, Daniel Humair, Bruno Chevillon - Acoustic Tour at Europajazz Fest [HDTV 1080p]

2012 Michel Portal, Daniel Humair, Bruno Chevillon - Acoustic Tour at Europajazz Fest [HDTV 1080p]
Дата проведения концерта (записи):
29 марта 2012
Место проведения:
Centre Culturel de Montjean sur Loire
Время звучания:
00:53:59
Главы (разбивка по трекам):
нет
Качество:
HDTV
Контейнер:
MP4
Состав:
  • Michel Portal (clarinettes, saxophone, bandoneon)
  • Bruno Chevillon (contrebasse)
  • Daniel Humair (batterie)
Треклист:

1. Pastor
2. Max mon amour
3. Improvisation
4. Ombres
5. Judy Garland
6. Caravan
7. La javanaise
8. Improvisations

Видео:
1920x1080 (16:9), 25.00 fps, AVC, 9075 Кбит, 0.174 bits/pixel
Аудио#1:
48.0 KHz, AAC-LC, 2 ch, stereo, 128-384 Kbps VBR
Отчёт DVDInfo/MediaInfo/BDInfo
Полное имя : G:\DVD\Michel Portal Acoustic Tour 2012\Michel Portal, Daniel Humair & Bruno Chevillon - Michel Portal Acoustic Tour.mp4
Формат : MPEG-4
Профиль формата : Base Media / Version 2
Идентификатор кодека : mp42
Размер файла : 5,16 Гбайт
Продолжительность : 1 ч. 18 м.
Общий поток : 9463 Кбит/сек
Дата кодирования : UTC 2013-12-12 09:49:12
Дата пометки : UTC 2013-12-12 09:49:12
Видео
Идентификатор : 2
Формат : AVC
Формат/Информация : Advanced Video Codec
Профиль формата : Main@L4.0
Параметр CABAC формата : Да
Параметр ReFrames формата : 2 кадра
Идентификатор кодека : avc1
Идентификатор кодека/Информация : Advanced Video Coding
Продолжительность : 1 ч. 18 м.
Вид битрейта : Переменный
Битрейт : 9075 Кбит/сек
Максимальный битрейт : 9001 Кбит/сек
Ширина : 1920 пикселей
Высота : 1088 пикселей
Высота оригинала : 1080 пикселей
Соотношение сторон : 16:9
Соотношение сторон в оригинале : 16:9
Режим частоты кадров : Постоянный
Частота кадров : 25,000 кадров/сек
Частота кадров в оригинале : 12,500 кадров/сек
Цветовое пространство : YUV
Субдискретизация насыщенности : 4:2:0
Битовая глубина : 8 бит
Тип развёртки : Прогрессивная
Бит/(Пиксели*Кадры) : 0.174
Размер потока : 4,95 Гбайт (96%)
Язык : English
Дата кодирования : UTC 2013-12-12 09:49:12
Дата пометки : UTC 2013-12-12 09:49:12
Аудио
Идентификатор : 1
Формат : AAC
Формат/Информация : Advanced Audio Codec
Профиль формата : LC
Идентификатор кодека : 40
Продолжительность : 1 ч. 18 м.
Вид битрейта : Постоянный
Битрейт : 384 Кбит/сек
Номинальный битрейт : 128 Кбит/сек
Каналы : 2 канала
Расположение каналов : Front: L R
Частота : 48,0 КГц
Метод сжатия : С потерями
Размер потока : 214 Мбайт (4%)
Язык : English
Дата кодирования : UTC 2013-12-12 09:49:12
Дата пометки : UTC 2013-12-12 09:49:12
Any questions - support@pro-jazz.com.
Есть вопросы - support@pro-jazz.com
44
Нет комментариев. Ваш будет первым!