Поиск

2012 Jerry Gonzalez Quartet - Live at Jazz a Foix [HDTV 1080i]

2012 Jerry Gonzalez Quartet - Live at Jazz a Foix [HDTV 1080i]
Главы (разбивка по трекам):
нет
Качество:
HDTV
Контейнер:
MP4
Состав:
  • Jerry Gonzalez - trumpet, conga
  • Javier Masso Caramello - piano
  • Alain Perez - bass
  • Kiki Ferrrer - drums
Треклист:

1. Someday My Prints Will Come
2. Love For Sale
3. In a Sentimental Mood
4. Footprints

Видео:
1920x1080 (16:9), 25.00 fps, AVC, 9169 Кбит, 0.176 bits/pixel
Аудио#1:
48.0 KHz, AAC-LC, 2 ch, stereo, 128-384 Kbps VBR
Отчёт DVDInfo/MediaInfo/BDInfo
Полное имя : G:\DVD\Jerry Gonzalez Quartet - LaJaF 2012\Jerry Gonzalez Quartet - Live at Jazz a Foix 2012.mp4
Формат : MPEG-4
Профиль формата : Base Media / Version 2
Идентификатор кодека : mp42
Размер файла : 3,74 Гбайт
Продолжительность : 56 м.
Общий поток : 9557 Кбит/сек
Дата кодирования : UTC 2013-12-25 11:46:48
Дата пометки : UTC 2013-12-25 11:46:48
Видео
Идентификатор : 2
Формат : AVC
Формат/Информация : Advanced Video Codec
Профиль формата : Main@L4.0
Параметр CABAC формата : Да
Параметр ReFrames формата : 2 кадра
Идентификатор кодека : avc1
Идентификатор кодека/Информация : Advanced Video Coding
Продолжительность : 56 м.
Вид битрейта : Переменный
Битрейт : 9169 Кбит/сек
Максимальный битрейт : 9001 Кбит/сек
Ширина : 1920 пикселей
Высота : 1088 пикселей
Высота оригинала : 1080 пикселей
Соотношение сторон : 16:9
Соотношение сторон в оригинале : 16:9
Режим частоты кадров : Постоянный
Частота кадров : 25,000 кадров/сек
Частота кадров в оригинале : 12,500 кадров/сек
Цветовое пространство : YUV
Субдискретизация насыщенности : 4:2:0
Битовая глубина : 8 бит
Тип развёртки : Прогрессивная
Бит/(Пиксели*Кадры) : 0.176
Размер потока : 3,59 Гбайт (96%)
Язык : English
Дата кодирования : UTC 2013-12-25 11:46:48
Дата пометки : UTC 2013-12-25 11:46:48
Аудио
Идентификатор : 1
Формат : AAC
Формат/Информация : Advanced Audio Codec
Профиль формата : LC
Идентификатор кодека : 40
Продолжительность : 56 м.
Вид битрейта : Постоянный
Битрейт : 384 Кбит/сек
Номинальный битрейт : 128 Кбит/сек
Каналы : 2 канала
Расположение каналов : Front: L R
Частота : 48,0 КГц
Метод сжатия : С потерями
Размер потока : 154 Мбайт (4%)
Язык : English
Дата кодирования : UTC 2013-12-25 11:46:48
Дата пометки : UTC 2013-12-25 11:46:48
По всем вопросам пишите личное сообщение пользователю M0p94ok.
263
Нет комментариев. Ваш будет первым!