Поиск

2012 Familia Assad - Aux Nuit de la Guitare Patrimonio [HDTV 1080p]

2012 Familia Assad - Aux Nuit de la Guitare Patrimonio [HDTV 1080p]
Стиль:
Главы (разбивка по трекам):
нет
Качество:
HDTV
Контейнер:
MP4
Треклист:

01. Jorge do fusa
02. Gente humilde
03. Lamentos do morro
04. Asa branca / Ai que saudade d'oce
05. Carinhoso
06. Adeus America
07. Medley de sambas
08. Hope
09. Nostalgy
10. Happiness

Состав:
  • Sergio Assad - guitare & sazouki
  • Odair Assad - guitare
  • Badi Assad - guitare. percussions, chant
  • Clarice Assad - piano, guitare, bass, chant
  • Carolina Assad - chant
Видео:
AVC (h.264) / 1920x1080 / progressive / 16:9 / 9 834 kbps / 25.00 fps
Аудио#1:
48.0 KHz, AAC-LC, 2 ch, stereo, 128-384 Kbps VBR
Дополнительная информация:

This video is available on our DC++ hub: dc.pro-jazz.com
Это видео доступно на нашем DC++ хабе: dc.pro-jazz.com

Отчёт DVDInfo/MediaInfo/BDInfo
Полное имя : \Familia Assad - ANGP 2012\Familia Assad - Aux Nuit de la Guitare Patrimonio 2012.mp4
Формат : MPEG-4
Профиль формата : Base Media / Version 2
Идентификатор кодека : mp42
Размер файла : 3,47 Гбайт
Продолжительность : 48 м.
Общий поток : 10,2 Мбит/сек
Дата кодирования : UTC 2014-01-19 10:27:05
Дата пометки : UTC 2014-01-19 10:27:05
Видео
Идентификатор : 2
Формат : AVC
Формат/Информация : Advanced Video Codec
Профиль формата : Main@L4.1
Параметр CABAC формата : Да
Параметр ReFrames формата : 2 кадра
Идентификатор кодека : avc1
Идентификатор кодека/Информация : Advanced Video Coding
Продолжительность : 48 м.
Вид битрейта : Переменный
Битрейт : 9834 Кбит/сек
Максимальный битрейт : 10,0 Мбит/сек
Ширина : 1920 пикселей
Высота : 1088 пикселей
Высота оригинала : 1080 пикселей
Соотношение сторон : 16:9
Соотношение сторон в оригинале : 16:9
Режим частоты кадров : Постоянный
Частота кадров : 25,000 кадров/сек
Частота кадров в оригинале : 12,500 кадров/сек
Цветовое пространство : YUV
Субдискретизация насыщенности : 4:2:0
Битовая глубина : 8 бит
Тип развёртки : Прогрессивная
Бит/(Пиксели*Кадры) : 0.188
Размер потока : 3,34 Гбайт (96%)
Язык : English
Дата кодирования : UTC 2014-01-19 10:27:05
Дата пометки : UTC 2014-01-19 10:27:05
Аудио
Идентификатор : 1
Формат : AAC
Формат/Информация : Advanced Audio Codec
Профиль формата : LC
Идентификатор кодека : 40
Продолжительность : 48 м.
Вид битрейта : Постоянный
Битрейт : 384 Кбит/сек
Номинальный битрейт : 128 Кбит/сек
Каналы : 2 канала
Расположение каналов : Front: L R
Частота : 48,0 КГц
Метод сжатия : С потерями
Размер потока : 133 Мбайт (4%)
Язык : English
Дата кодирования : UTC 2014-01-19 10:27:05
Дата пометки : UTC 2014-01-19 10:27:05
Any questions - projazzclub@gmail.com
322
Нет комментариев. Ваш будет первым!