Вы используете незарегистрированную версию компонента "Вкладки"!

Поиск

2012 Buena Vista Social Club 1999 [BDRip 720p]

2012 Buena Vista Social Club 1999 [BDRip 720p]
Время звучания:
01:40:53
Главы (разбивка по трекам):
есть
Качество:
BDRip
Контейнер:
MKV
Видео:
MPEG-4 AVC / 1280x720 / 16:9 / 25,000 fps / ~4697 Kbps
Аудио#1:
English DTS 5.1 / 48 kHz / 1510 kbps / 24 bits
Описание:

Перевода нет, русских субтитров нет.

Отчёт DVDInfo/MediaInfo/BDInfo
General
Unique ID : 241663738673152096810584266088383415783 (0xB5CEBE3A6178C141A6B329048ACE85E7)
Complete name : C:\buena.vista.social.club.1999.720p.bluray.dts.x264-publichd.mkv
Format : Matroska
Format version : Version 2
File size : 4.38 GiB
Duration : 1h 40mn
Overall bit rate : 6 216 Kbps
Encoded date : UTC 2012-07-31 19:16:41
Writing application : mkvmerge v5.7.0 ('The Whirlwind') built on Jul 8 2012 20:08:51
Writing library : libebml v1.2.3 + libmatroska v1.3.0
Video
ID : 1
Format : AVC
Format/Info : Advanced Video Codec
Format profile : High@L4.1
Format settings, CABAC : Yes
Format settings, ReFrames : 5 frames
Codec ID : V_MPEG4/ISO/AVC
Duration : 1h 40mn
Bit rate : 4 697 Kbps
Width : 1 280 pixels
Height : 720 pixels
Display aspect ratio : 16:9
Frame rate : 25.000 fps
Color space : YUV
Chroma subsampling : 4:2:0
Bit depth : 8 bits
Scan type : Progressive
Bits/(Pixel*Frame) : 0.204
Stream size : 3.23 GiB (74%)
Writing library : x264 core 125 r2200 999b753
Encoding settings : cabac=1 / ref=6 / deblock=1:0:0 / analyse=0x3:0x133 / me=umh / subme=7 / psy=1 / psy_rd=1.00:0.00 / mixed_ref=0 / me_range=48 / chroma_me=1 / trellis=2 / 8x8dct=1 / cqm=0 / deadzone=21,11 / fast_pskip=1 / chroma_qp_offset=-2 / threads=12 / lookahead_threads=2 / sliced_threads=0 / nr=0 / decimate=1 / interlaced=0 / bluray_compat=0 / constrained_intra=0 / bframes=3 / b_pyramid=1 / b_adapt=2 / b_bias=0 / direct=3 / weightb=1 / open_gop=0 / weightp=2 / keyint=250 / keyint_min=25 / scenecut=40 / intra_refresh=0 / rc_lookahead=60 / rc=abr / mbtree=1 / bitrate=4697 / ratetol=1.0 / qcomp=0.60 / qpmin=0 / qpmax=69 / qpstep=4 / ip_ratio=1.40 / aq=1:1.00
Language : English
Audio
ID : 2
Format : DTS
Format/Info : Digital Theater Systems
Codec ID : A_DTS
Duration : 1h 40mn
Bit rate mode : Constant
Bit rate : 1 510 Kbps
Channel(s) : 6 channels
Channel positions : Front: L C R, Side: L R, LFE
Sampling rate : 48.0 KHz
Bit depth : 24 bits
Compression mode : Lossy
Stream size : 1.06 GiB (24%)
Language : English
Menu
00:00:00.000 : en:00:00:00.000
00:05:26.960 : en:00:05:26.960
00:10:21.920 : en:00:10:21.920
00:17:48.400 : en:00:17:48.400
00:21:47.680 : en:00:21:47.680
00:24:44.760 : en:00:24:44.760
00:28:22.400 : en:00:28:22.400
00:34:36.840 : en:00:34:36.840
00:41:42.920 : en:00:41:42.920
00:53:59.640 : en:00:53:59.640
00:57:06.360 : en:00:57:06.360
01:04:09.640 : en:01:04:09.640
01:10:40.480 : en:01:10:40.480
01:13:31.320 : en:01:13:31.320
01:19:33.200 : en:01:19:33.200
Any questions - support@pro-jazz.com.
Есть вопросы - support@pro-jazz.com
74
Нет комментариев. Ваш будет первым!