Поиск

2012 Bobby McFerrin Chick Corea Duet - at Jazz a Vienne [HDTV 1080i]

2012 Bobby McFerrin Chick Corea Duet - at Jazz a Vienne [HDTV 1080i]
Дата проведения концерта (записи):
29 июня 2012
Место проведения:
Vienne, France
Главы (разбивка по трекам):
нет
Качество:
HDTV
Контейнер:
MP4
Состав:
Треклист:

01. Got A Match
02. Sophisticated Lady
03. Pent Up House
04. Improvisation
05. Improvisation
06. Donna Lee
07. I've Got The World On A String
08. The Frog
09. Spain
10. Now's the Time

Видео:
AVC (h.264) / 1920x1080 / interlaced / 16:9 / 7 034 kbps / 25.00 fps
Аудио#1:
AAC LC / 256kbps / constant / 48kHz / 2ch stereo
Описание:

На сцене фестиваля "Джаз во Вьене" в 2012 году состоялся исключительный концерт двух легенд. Певец Бобби Макферрин и пианист Чик Кореа предлагают эклектичную программу, в которой они исследуют границы своих инструментов, демонстрируя истинное мастерство и многогранность. Химия между этими двумя титанами сцены ощутима во время сольного концерта, который сочетает в себе высоколетные интерпретации собственных шедевров Кориа и Макферрина и запоминающиеся джазовые стандарты.

Дополнительная информация:

This video is available on our DC++ hub: dc.pro-jazz.com
Это видео доступно на нашем DC++ хабе: dc.pro-jazz.com

Отчёт DVDInfo/MediaInfo/BDInfo
Общее
Полное имя : \\Bobby McFerrin\2012 Bobby McFerrin Chick Corea Duet - at Jazz a Vienne [HDTV 1080i].mp4
Формат : MPEG-4
Профиль формата : Base Media
Идентификатор кодека : isom (isom/iso2/avc1/mp41)
Размер файла : 2,92 Гбайт
Продолжительность : 57 м. 16 с.
Режим общего битрейта : Переменный
Общий поток : 7 302 Кбит/сек
Частота кадров : 25,000 кадров/сек
Программа кодирования : VideoReDo (Lavf58.29.100)

Видео
Идентификатор : 1
Формат : AVC
Формат/Информация : Advanced Video Codec
Профиль формата : High@L4
Настройки формата : CABAC / 4 Ref Frames
Параметр CABAC формата : Да
Параметр RefFrames формата : 4 кадра
Идентификатор кодека : avc1
Идентификатор кодека/Информация : Advanced Video Coding
Продолжительность : 57 м. 16 с.
Битрейт : 7 034 Кбит/сек
Ширина : 1 920 пикселей
Высота : 1 080 пикселей
Соотношение сторон : 16:9
Описание активного формата : Letterbox 16:9 image
Режим частоты кадров : Постоянный
Частота кадров : 25,000 кадров/сек
Стандарт вещания : Component
Цветовое пространство : YUV
Субдискретизация насыщенности : 4:2:0
Битовая глубина : 8 бит
Тип развёртки : Чересстрочная
Метод сохранения типа развёртки : Раздельные поля
Порядок развёртки : Верхнее поле первое
Бит/(Пиксели*Кадры) : 0.136
Размер потока : 2,81 Гбайт (96%)
Цветовой диапазон : Limited
Основные цвета : BT.709
Характеристики трансфера : BT.709
Коэффициенты матрицы : BT.709
Menus : 3
Codec configuration box : avcC

Аудио
Идентификатор : 2
Формат : AAC LC
Формат/Информация : Advanced Audio Codec Low Complexity
Идентификатор кодека : mp4a-40-2
Продолжительность : 57 м. 16 с.
Duration_LastFrame : -21 мс.
Вид битрейта : Переменный
Битрейт : 253 Кбит/сек
Максимальный битрейт : 256 Кбит/сек
Каналы : 2 канала
Channel layout : L R
Частота : 48,0 КГц
Частота кадров : 46,875 кадров/сек (1024 SPF)
Метод сжатия : С потерями
Размер потока : 104 Мбайт (3%)
Язык : French
Default : Да
Alternate group : 1
Menus : 3

Меню #1
Идентификатор : 3
Формат : txet
Идентификатор кодека : txet
Продолжительность : 57 м. 16 с.
Язык : English
Menu For : 1,2

Меню #2
00:00:00.000 : Chapter 1
Any questions - support@pro-jazz.com
To become a power user - read FAQ.
67
Нет комментариев. Ваш будет первым!