Поиск

2012 Baptiste Trotignon - at Jazz sous les Pommiers [HDTV 1080p]

2012 Baptiste Trotignon - at Jazz sous les Pommiers [HDTV 1080p]
Стиль:
Дата проведения концерта (записи):
18 мая 2012
Место проведения:
festival Jazz sous les Pommiers
Время звучания:
01:44:16
Главы (разбивка по трекам):
нет
Качество:
HDTV
Контейнер:
MP4
Состав:
Треклист:

01. Moods
02. First Song
03. End of the Gig
04. Awake
05. I Carry your Heart
06. Fervex
07. Samsara
08. Donna Lee
09. It Could Happen To You
10. Super Dark Light
11. Dexter
12. Massasoit

Видео:
1920x1080 (16:9), 25.00 fps, AVC, 9025 Кбит, 0.173 bits/pixel
Аудио#1:
48.0 KHz, AAC-LC, 2 ch, stereo, 128-384 Kbps VBR
Описание:

Теплая игра Стефано ди Баттисты, в которой столько же виртуозности, сколько и эмоциональности, быстрая и щедрая, объемная, но никогда не болтливая, прекрасно сочеталась с нежными и изысканными тонами Тома Харрелла. Дыхания гармонично пересекались и даже находили общий язык. Временами Том отходил на второй план, стоял неподвижно, казался отсутствующим, но он лишь наполнял себя музыкой других, прежде чем снова вмешаться. Обеспокоенный взгляд пианиста на это воссоединение, которое может быть скомпрометировано чем угодно, окутал великолепного трубача, чья чувствительная игра вызывает мурашки по коже, бесконечной нежностью. Магия музыки сработала, и Батист Тротиньон мог бы получить карт-бланш на все аплодисменты публики, искренность которых не вызывала сомнений.

Отчёт DVDInfo/MediaInfo/BDInfo
Полное имя : G:\DVD\Baptiste Trotignon - JslP 2012\Baptiste Trotignon - Jazz sous les Pommiers 2012.mp4
Формат : MPEG-4
Профиль формата : Base Media / Version 2
Идентификатор кодека : mp42
Размер файла : 6,86 Гбайт
Продолжительность : 1 ч. 44 м.
Общий поток : 9413 Кбит/сек
Дата кодирования : UTC 2014-01-09 07:16:01
Дата пометки : UTC 2014-01-09 07:16:01
Видео
Идентификатор : 2
Формат : AVC
Формат/Информация : Advanced Video Codec
Профиль формата : Main@L4.0
Параметр CABAC формата : Да
Параметр ReFrames формата : 2 кадра
Идентификатор кодека : avc1
Идентификатор кодека/Информация : Advanced Video Coding
Продолжительность : 1 ч. 44 м.
Вид битрейта : Переменный
Битрейт : 9025 Кбит/сек
Максимальный битрейт : 9001 Кбит/сек
Ширина : 1920 пикселей
Высота : 1088 пикселей
Высота оригинала : 1080 пикселей
Соотношение сторон : 16:9
Соотношение сторон в оригинале : 16:9
Режим частоты кадров : Постоянный
Частота кадров : 25,000 кадров/сек
Частота кадров в оригинале : 12,500 кадров/сек
Цветовое пространство : YUV
Субдискретизация насыщенности : 4:2:0
Битовая глубина : 8 бит
Тип развёртки : Прогрессивная
Бит/(Пиксели*Кадры) : 0.173
Размер потока : 6,57 Гбайт (96%)
Язык : English
Дата кодирования : UTC 2014-01-09 07:16:01
Дата пометки : UTC 2014-01-09 07:16:01
Аудио
Идентификатор : 1
Формат : AAC
Формат/Информация : Advanced Audio Codec
Профиль формата : LC
Идентификатор кодека : 40
Продолжительность : 1 ч. 44 м.
Вид битрейта : Постоянный
Битрейт : 384 Кбит/сек
Номинальный битрейт : 128 Кбит/сек
Каналы : 2 канала
Расположение каналов : Front: L R
Частота : 48,0 КГц
Метод сжатия : С потерями
Размер потока : 286 Мбайт (4%)
Язык : English
Дата кодирования : UTC 2014-01-09 07:16:01
Дата пометки : UTC 2014-01-09 07:16:01
По всем вопросам пишите личное сообщение пользователю M0p94ok.
151
Нет комментариев. Ваш будет первым!