Поиск

2011 Ron Carter - at Jazz Sous Les Pommiers [HDTV 1080i]

2011 Ron Carter - at Jazz Sous Les Pommiers [HDTV 1080i]
Состав:
  • Ron Carter - bass
  • MULGREW MILLER - piano
  • BOBBY BROOM - guitar
Треклист:
  • 1. Cedar Tree
  • 2. Parade
  • 3. The Golden Striker
Описание:

Продолжительность: 54min
Год выпуска: 2011

Качество: HDTV
Контейнер: TS
Видео кодек: H.264
Аудио кодек: MP2
Видео: h.264,1920*1080,~6mbps,25fps
Аудио: mpeg audio,256kbps,48kHz,2ch

Отчёт DVDInfo/MediaInfo/BDInfo
Общее
Идентификатор : 5800 (0x16A8)
Полное имя : \\Ron Carter\20111207 0630 - MEZZO HD - Jazz sous les Pommiers 2011.ts
Формат : MPEG-TS
Размер файла : 2,70 Гбайт
Продолжительность : 56 м. 16 с.
Режим общего битрейта : Переменный
Общий поток : 6882 Кбит/сек

Видео
Идентификатор : 2007 (0x7D7)
Идентификатор меню : 3507 (0xDB3)
Формат : AVC
Формат/Информация : Advanced Video Codec
Профиль формата : High@L4
Настройки формата : CABAC / 2 Ref Frames
Параметр CABAC формата : Да
Параметр RefFrames формата : 2 кадра
Идентификатор кодека : 27
Продолжительность : 56 м. 15 с.
Вид битрейта : Переменный
Битрейт : 6283 Кбит/сек
Максимальный битрейт : 6400 Кбит/сек
Ширина : 1440 пикселей
Высота : 1080 пикселей
Соотношение сторон : 16:9
Частота кадров : 25,000 кадров/сек
Цветовое пространство : YUV
Субдискретизация насыщенности : 4:2:0
Битовая глубина : 8 бит
Тип развёртки : MBAFF
Метод сохранения типа развёртки : Чередующиеся поля
Порядок развёртки : Верхнее поле первое
Бит/(Пиксели*Кадры) : 0.162
Размер потока : 2,47 Гбайт (91%)
Цветовой диапазон : Limited
Основные цвета : BT.709
Характеристики трансфера : BT.709
Коэффициенты матрицы : BT.709

Аудио
Идентификатор : 3007 (0xBBF)
Идентификатор меню : 3507 (0xDB3)
Формат : MPEG Audio
Версия формата : Version 1
Профиль формата : Layer 2
Идентификатор кодека : 3
Продолжительность : 56 м. 16 с.
Вид битрейта : Постоянный
Битрейт : 256 Кбит/сек
Каналы : 2 канала
Частота : 48,0 КГц
Частота кадров : 41,667 кадра/сек (1152 SPF)
Метод сжатия : С потерями
Задержка видео : -1 с. 331 мс.
Размер потока : 103 Мбайт (4%)

Меню
Идентификатор : 1007 (0x3EF)
Идентификатор меню : 3507 (0xDB3)
Продолжительность : 56 м. 16 с.
Список : 2007 (0x7D7) (AVC) / 3007 (0xBBF) (MPEG Audio)
Download available for power users only.
390
Нет комментариев. Ваш будет первым!