Поиск

2011 Richard Galliano La Strada Quintet - Tribute To Nino Rota [HDTV 1080p]

2011 Richard Galliano La Strada Quintet - Tribute To Nino Rota [HDTV 1080p]
Стиль:
Дата проведения концерта (записи):
16 ноября 2011
Место проведения:
La Salle Pleyel
Главы (разбивка по трекам):
нет
Качество:
HDTV
Контейнер:
MP4
Состав:
  • Richard Galliano - accordeon, accordina
  • John Surman - saxophone
  • Dave Douglas - trompette
  • Boris Kozlov - contrebasse
  • Clarence Penn - batterie
Треклист:

= Waltz from The Godfather =
= Tema =
= Temi =
= I Tre Sounatori =
= La Processione =
= La Passerella D'Addio =
= Solitudine Di Gelsomina =
= Il Circo Giraffa =
= Il Matto Sul Filo =
= Love Theme from The Godfather =
= Gelsomina =
= Tema =
= Zampano e la Vedova =
= La Partenza del Convento =
= Addio del Matto =
= Temi =
= La Manine di Primavera =
= Tema =

Видео:
1920x1080 (16:9), 25.00 fps, AVC, 8755 Кбит, 0.173 bits/pixel
Аудио#1:
48.0 KHz, AAC-LC, 2 ch, stereo, 128-384 Kbps VBR
Отчёт DVDInfo/MediaInfo/BDInfo
Полное имя : G:\DVD\Richard Galliano - TTNR 2011\Richard Galliano La Strada Quintet - Tribute To Nino Rota.mp4
Формат : MPEG-4
Профиль формата : Base Media / Version 2
Идентификатор кодека : mp42
Размер файла : 5,50 Гбайт
Продолжительность : 1 ч. 26 м.
Общий поток : 9143 Кбит/сек
Дата кодирования : UTC 2014-01-06 07:48:13
Дата пометки : UTC 2014-01-06 07:48:13
Видео
Идентификатор : 2
Формат : AVC
Формат/Информация : Advanced Video Codec
Профиль формата : Main@L4.0
Параметр CABAC формата : Да
Параметр ReFrames формата : 2 кадра
Идентификатор кодека : avc1
Идентификатор кодека/Информация : Advanced Video Coding
Продолжительность : 1 ч. 26 м.
Вид битрейта : Переменный
Битрейт : 8755 Кбит/сек
Максимальный битрейт : 9001 Кбит/сек
Ширина : 1920 пикселей
Высота : 1088 пикселей
Высота оригинала : 1080 пикселей
Соотношение сторон : 16:9
Соотношение сторон в оригинале : 16:9
Режим частоты кадров : Постоянный
Частота кадров : 25,000 кадров/сек
Частота кадров в оригинале : 12,500 кадров/сек
Цветовое пространство : YUV
Субдискретизация насыщенности : 4:2:0
Битовая глубина : 8 бит
Тип развёртки : Прогрессивная
Бит/(Пиксели*Кадры) : 0.168
Размер потока : 5,27 Гбайт (96%)
Язык : English
Дата кодирования : UTC 2014-01-06 07:48:13
Дата пометки : UTC 2014-01-06 07:48:13
Аудио
Идентификатор : 1
Формат : AAC
Формат/Информация : Advanced Audio Codec
Профиль формата : LC
Идентификатор кодека : 40
Продолжительность : 1 ч. 26 м.
Вид битрейта : Постоянный
Битрейт : 384 Кбит/сек
Номинальный битрейт : 128 Кбит/сек
Каналы : 2 канала
Расположение каналов : Front: L R
Частота : 48,0 КГц
Метод сжатия : С потерями
Размер потока : 237 Мбайт (4%)
Язык : English
Дата кодирования : UTC 2014-01-06 07:48:13
Дата пометки : UTC 2014-01-06 07:48:13
Download available for power users only.
127
Нет комментариев. Ваш будет первым!