Поиск

2011 Lee Konitz and Dan Tepfer - All The Things You Are [HDTV 1080p]

2011 Lee Konitz and Dan Tepfer - All The Things You Are [HDTV 1080p]
Стиль:
Время звучания:
00:54:48
Главы (разбивка по трекам):
нет
Качество:
HDTV
Контейнер:
MP4
Состав:
  • Lee Konitz, saxophone alto
  • Dan Tepfer, piano
Треклист:

1. All The Things You Are
2. Thing In
3. Les Feuilles Mortes
4. La Marseillaise
5. Round Midnight
6. Solar

Видео:
AVC (h.264) / 1920*1080p / 16:9 / 8794 kbps / 25fps
Аудио#1:
AAC LC / VBR / 128-384kbps / 48kHz / 2ch stereo
Описание:

Чтобы передать удивительную жизненную энергию одной из последних живых легенд современного джаза, этот фильм следует за Ли Коницем и молодым пианистом Дэном Тепфером через 4 последовательных концерта из Барселоны в Париж, через Херес и Оффенбург, исполняя стандарт, который он неустанно играет уже более 60 лет: All the Things You Are.
Трогательный роуд-муви по следам "странствующего продавца импровизации".
(Джазовый фестиваль в Барселоне)
(Театр Дени, Гиер, Франция)
(Фестиваль Jazzdor, Оффенбург, Аллемания)
(Париж, Сансайд)

Отчёт DVDInfo/MediaInfo/BDInfo
Полное имя : G:\DVD\Lee Konitz and Dan Tepfer - ATTYA 2011\Lee Konitz and Dan Tepfer - All The Things You Are 2011.mp4
Формат : MPEG-4
Профиль формата : Base Media / Version 2
Идентификатор кодека : mp42
Размер файла : 3,51 Гбайт
Продолжительность : 54 м.
Общий поток : 9180 Кбит/сек
Дата кодирования : UTC 2013-12-31 09:44:54
Дата пометки : UTC 2013-12-31 09:44:54
Видео
Идентификатор : 2
Формат : AVC
Формат/Информация : Advanced Video Codec
Профиль формата : Main@L4.0
Параметр CABAC формата : Да
Параметр ReFrames формата : 2 кадра
Идентификатор кодека : avc1
Идентификатор кодека/Информация : Advanced Video Coding
Продолжительность : 54 м.
Вид битрейта : Переменный
Битрейт : 8794 Кбит/сек
Максимальный битрейт : 9001 Кбит/сек
Ширина : 1920 пикселей
Высота : 1088 пикселей
Высота оригинала : 1080 пикселей
Соотношение сторон : 16:9
Соотношение сторон в оригинале : 16:9
Режим частоты кадров : Постоянный
Частота кадров : 25,000 кадров/сек
Частота кадров в оригинале : 12,500 кадров/сек
Цветовое пространство : YUV
Субдискретизация насыщенности : 4:2:0
Битовая глубина : 8 бит
Тип развёртки : Прогрессивная
Бит/(Пиксели*Кадры) : 0.168
Размер потока : 3,37 Гбайт (96%)
Язык : English
Дата кодирования : UTC 2013-12-31 09:44:54
Дата пометки : UTC 2013-12-31 09:44:54
Аудио
Идентификатор : 1
Формат : AAC
Формат/Информация : Advanced Audio Codec
Профиль формата : LC
Идентификатор кодека : 40
Продолжительность : 54 м.
Вид битрейта : Постоянный
Битрейт : 384 Кбит/сек
Номинальный битрейт : 128 Кбит/сек
Каналы : 2 канала
Расположение каналов : Front: L R
Частота : 48,0 КГц
Метод сжатия : С потерями
Размер потока : 150 Мбайт (4%)
Язык : English
Дата кодирования : UTC 2013-12-31 09:44:54
Дата пометки : UTC 2013-12-31 09:44:54
По всем вопросам пишите личное сообщение пользователю M0p94ok.
77
Нет комментариев. Ваш будет первым!