Вы используете незарегистрированную версию компонента "Вкладки"!

Поиск

2011 Kenny Werner, Joe Lovano & BJO - at Dinant Jazz Festival [HDTV 1080i]

2011 Kenny Werner, Joe Lovano & BJO - at Dinant Jazz Festival [HDTV 1080i]
Состав:
  • Kenny Werner - piano
  • Joe Lovano - sax
  • Brussels Jazz Orchestra: Frank Vaganée, Dieter Limbourg, Kurt Van Herck, Bart Defoort, Kurt Van Herck (s), Serge Plume, Nico Schepers, Pierre Drevet, Jeroen Van Malderen (tp), Frederik Heirman, Lode Mertens, Ben Fleerakkers, Laurent Hendrick (tb), Peter Hertmans (g), Jos Machtel (b), Martijn Vink (dm)
Описание:

Выступление на фестивале джазовой музыки Dinant Jazz Festival, 14 июля 2011, записано на DM7020HD PVR (ruDREAM Line X).

Дополнительная информация:

Продолжительность: 59 min 58 sec
Год выпуска: 2011

Качество: HDTV
Контейнер: TS
Видео кодек: H.264
Аудио кодек: MP2
Видео: High@L4.0 AVC Bit rate : 6 880 Kbps 1440x1080 16/9 25.000 fps
Аудио: MPEG Audio 256 Kbps 2 channels Constant 48.0 KHz

Отчёт DVDInfo/MediaInfo/BDInfo
Общее
Идентификатор : 5800 (0x16A8)
Полное имя : \\Kenny Werner\Kenny Werner, Joe Lovano & BJO - Dinant Jazz Festival 2011.ts
Формат : MPEG-TS
Размер файла : 2,88 Гбайт
Продолжительность : 59 м. 58 с.
Режим общего битрейта : Переменный
Общий поток : 6880 Кбит/сек

Видео
Идентификатор : 2007 (0x7D7)
Идентификатор меню : 3507 (0xDB3)
Формат : AVC
Формат/Информация : Advanced Video Codec
Профиль формата : High@L4
Настройки формата : CABAC / 2 Ref Frames
Параметр CABAC формата : Да
Параметр RefFrames формата : 2 кадра
Параметр GOP формата : M=3, N=30
Идентификатор кодека : 27
Продолжительность : 59 м. 58 с.
Вид битрейта : Переменный
Битрейт : 6281 Кбит/сек
Максимальный битрейт : 6400 Кбит/сек
Ширина : 1440 пикселей
Высота : 1080 пикселей
Соотношение сторон : 16:9
Частота кадров : 25,000 кадров/сек
Цветовое пространство : YUV
Субдискретизация насыщенности : 4:2:0
Битовая глубина : 8 бит
Тип развёртки : MBAFF
Метод сохранения типа развёртки : Чередующиеся поля
Порядок развёртки : Верхнее поле первое
Бит/(Пиксели*Кадры) : 0.162
Размер потока : 2,63 Гбайт (91%)
Цветовой диапазон : Limited
Основные цвета : BT.709
Характеристики трансфера : BT.709
Коэффициенты матрицы : BT.709

Аудио
Идентификатор : 3007 (0xBBF)
Идентификатор меню : 3507 (0xDB3)
Формат : MPEG Audio
Версия формата : Version 1
Профиль формата : Layer 2
Идентификатор кодека : 3
Продолжительность : 59 м. 58 с.
Вид битрейта : Постоянный
Битрейт : 256 Кбит/сек
Каналы : 2 канала
Частота : 48,0 КГц
Частота кадров : 41,667 кадра/сек (1152 SPF)
Метод сжатия : С потерями
Задержка видео : -1 с. 232 мс.
Размер потока : 110 Мбайт (4%)

Меню
Идентификатор : 1007 (0x3EF)
Идентификатор меню : 3507 (0xDB3)
Продолжительность : 59 м. 58 с.
Список : 2007 (0x7D7) (AVC) / 3007 (0xBBF) (MPEG Audio)
Any questions - support@pro-jazz.com.
Есть вопросы - support@pro-jazz.com
280
Нет комментариев. Ваш будет первым!