Вы используете незарегистрированную версию компонента "Вкладки"!

Поиск

2011 JD Allen Trio - at Luz de Gas, 42 Voll-Damm Festival, Barсelona [HDTV 1080i]

2011 JD Allen Trio - at Luz de Gas, 42 Voll-Damm Festival, Barсelona [HDTV 1080i]
Стиль:
Дата проведения концерта (записи):
20 ноября 2010
Место проведения:
Luz de Gas, Voll-Damm Festival, Barсelona, Spain
Время звучания:
00:54:07
Главы (разбивка по трекам):
нет
Качество:
HDTV
Контейнер:
TS
Состав:
  • JD Allen - saxophone
  • Gregg August - bass
  • Rudy Royston - drums
Видео:
AVC (h.264) / 1920x1080i / 16:9 / 8 088 kbps / 25 fps
Аудио#1:
MPEG Audio Layer 2, 256 kbps, 48.0 kHz, 2 channels stereo
Описание:

Выступление трио саксофониста ДжейДи Аллена (JD Allen) 20 ноября 2010 в Luz de Gas в рамках 42-го международного фестиваля Voll-Damm, проходившего со 2 октября по 2 декабря 2010 в Барселоне. Информации об этом концерте не нашёл. Упоминание есть здесь и здесь.

 
Скриншоты

Отчёт DVDInfo/MediaInfo/BDInfo
General
ID : 1 (0x1)
Complete name : \\2011 JD Allen - At Luz de Gas, Barselona.ts
Format : MPEG-TS
File size : 3.32 GiB
Duration : 54 min 7 s
Overall bit rate mode : Variable
Overall bit rate : 8 781 kb/s
Video
ID : 323 (0x143)
Menu ID : 14103 (0x3717)
Format : AVC
Format/Info : Advanced Video Codec
Format profile : Main@L4
Format settings : CABAC / 3 Ref Frames
Format settings, CABAC : Yes
Format settings, ReFrames : 3 frames
Codec ID : 27
Duration : 54 min 7 s
Bit rate : 8 088 kb/s
Width : 1 920 pixels
Height : 1 080 pixels
Display aspect ratio : 16:9
Frame rate : 25.000 FPS
Standard : Component
Color space : YUV
Chroma subsampling : 4:2:0
Bit depth : 8 bits
Scan type : Interlaced
Scan type, store method : Separated fields
Scan order : Top Field First
Bits/(Pixel*Frame) : 0.156
Stream size : 3.06 GiB (92%)
Color range : Limited
Color primaries : BT.709
Transfer characteristics : BT.709
Matrix coefficients : BT.709
Audio
ID : 403 (0x193)
Menu ID : 14103 (0x3717)
Format : MPEG Audio
Format version : Version 1
Format profile : Layer 2
Codec ID : 3
Duration : 54 min 7 s
Bit rate mode : Constant
Bit rate : 256 kb/s
Channel(s) : 2 channels
Sampling rate : 48.0 kHz
Frame rate : 41.667 FPS (1152 SPF)
Compression mode : Lossy
Delay relative to video : -120 ms
Stream size : 99.1 MiB (3%)
Language : French
Any questions - support@pro-jazz.com. Есть вопросы - support@pro-jazz.com
573
Нет комментариев. Ваш будет первым!