Поиск

2011 Adele - iTunes Festival: London [HDTV 720p]

2011 Adele - iTunes Festival: London [HDTV 720p]
Треклист:

01. Hometown Glory (Live)
02. I'll Be Waiting (Live)
03. Don't You Remember (Live)
04. Turning Tables (Live)
05. Set Fire To The Rain (Live)
06. If It Hadn't Been For Love (Live)
07. My Same (Live)
08. Take It All (Live)
09. Rumor Has It (Live)
10. Right As Rain (Live)
11. One And Only (Live)
12. Lovesong (The Cure Cover) (Live)
13. Chasing Pavements (Live)
14. I Can't Make You Love Me (Live)
15. Make You Feel My Love (Live)
16. Rolling In The Deep (Live)
17. Someone Like You (Live)

Жанр: Soul, Indie, Jazz
Продолжительность: 01:25:08
Год выпуска: 2011
Качество: HDTV
Видео кодек: H.264
Контейнер: MP4
Аудио кодек: AAC
Видео: 1280x720, ~4 955 Kbps, 25.000 fps
Аудио: ~128 kbps, 48.0 khz, 2 ch

Описание:

Концертное выступление автора исполнителя Adele, записано на фестивале iTunes Festival London 7 июля 2011.

Отчёт DVDInfo/MediaInfo/BDInfo
H:\To look\Adele - iTunes Festival London 2011 [2011, Soul, Indie, Jazz, HDTV]\ADELE.iTunes.Festival.London.2011.live.720p.mp4
General
Complete name : H:\To look\Adele - iTunes Festival London 2011 [2011, Soul, Indie, Jazz, HDTV]\ADELE.iTunes.Festival.London.2011.live.720p.mp4
Format : MPEG-4
Format profile : Base Media
Codec ID : isom
File size : 3.03 GiB
Duration : 1h 25mn
Overall bit rate : 5 088 Kbps
Writing application : Lavf53.4.0
Video #1
ID : 1
Format : AVC
Format/Info : Advanced Video Codec
Format profile : Main@L3.1
Format settings, CABAC : Yes
Format settings, ReFrames : 1 frame
Codec ID : avc1
Codec ID/Info : Advanced Video Coding
Duration : 1h 25mn
Bit rate mode : Variable
Bit rate : 4 955 Kbps
Width : 1 280 pixels
Height : 720 pixels
Display aspect ratio : 16:9
Frame rate mode : Constant
Frame rate : 25.000 fps
Color space : YUV
Chroma subsampling : 4:2:0
Bit depth : 8 bits
Scan type : Progressive
Bits/(Pixel*Frame) : 0.215
Stream size : 2.95 GiB (97%)
Audio #2
ID : 2
Format : AAC
Format/Info : Advanced Audio Codec
Format profile : LC
Codec ID : 40
Duration : 1h 25mn
Bit rate mode : Constant
Bit rate : 128 Kbps
Channel(s) : 2 channels
Channel positions : Front: L R
Sampling rate : 48.0 KHz
Compression mode : Lossy
Stream size : 78.0 MiB (3%)
Скриншоты видео
2011 Adele - iTunes Festival: London [HDTV 720p] 02011 Adele - iTunes Festival: London [HDTV 720p] 12011 Adele - iTunes Festival: London [HDTV 720p] 22011 Adele - iTunes Festival: London [HDTV 720p] 32011 Adele - iTunes Festival: London [HDTV 720p] 42011 Adele - iTunes Festival: London [HDTV 720p] 52011 Adele - iTunes Festival: London [HDTV 720p] 62011 Adele - iTunes Festival: London [HDTV 720p] 72011 Adele - iTunes Festival: London [HDTV 720p] 8
Download available for power users only.
523
Нет комментариев. Ваш будет первым!