Поиск

2010 Ilhan Ersahin - JazzMix Festival a Istanbul, Live at Babylone [HDTV 1080p]

2010 Ilhan Ersahin - JazzMix Festival a Istanbul, Live at Babylone [HDTV 1080p]
Дата проведения концерта (записи):
02 декабря 2010
Место проведения:
Babylone, Istanbul, Turkey
Время звучания:
00:53:21
Главы (разбивка по трекам):
нет
Качество:
HDTV
Контейнер:
MKV
Треклист:

01. Freedom
02. Bosphorus
03. Doors to Heaven
04. Thomas O'Malley
05. Sam I Am
06. Downtown Istanbul
07. Kefal
08. Les Ottomans
09. The Dark Tunnel of Europe
10. Alley Cats
11. Our Theory

Видео:
AVC (h.264) / 1920x1080p / 16:9 / 25.00 fps / 8189 Кbps
Аудио#1:
AC3 / 192 kbps / 48.0 KHz / 2 ch stereo
Отчёт DVDInfo/MediaInfo/BDInfo
Полное имя : G:\DVD\Ilhan Ersahin (2010)\Ilhan Ersahin - JazzMix Festival a Istanbul.mkv
Формат : Matroska
Размер файла : 3,19 Гбайт
Продолжительность : 53 м.
Общий поток : 8552 Кбит/сек
Программа кодирования : Lavf51.12.1
Библиотека кодирования : Lavf51.12.1

Видео
Идентификатор : 1
Формат : AVC
Формат/Информация : Advanced Video Codec
Профиль формата : Baseline@L4.0
Параметр CABAC формата : Нет
Параметр ReFrames формата : 1 кадр
Параметр GOP формата : M=1, N=12
Идентификатор кодека : V_MPEG4/ISO/AVC
Продолжительность : 53 м.
Вид битрейта : Переменный
Битрейт : 8189 Кбит/сек
Максимальный битрейт : 12,0 Мбит/сек
Ширина : 1920 пикселей
Высота : 1080 пикселей
Соотношение сторон : 16:9
Частота кадров : 25,000 кадров/сек
Частота кадров в оригинале : 24,000 кадра/сек
Цветовое пространство : YUV
Субдискретизация насыщенности : 4:2:0
Битовая глубина : 8 бит
Тип развёртки : Прогрессивная
Бит/(Пиксели*Кадры) : 0.158
Размер потока : 3,05 Гбайт (96%)
Язык : English / English

Аудио
Идентификатор : 2
Формат : AC-3
Формат/Информация : Audio Coding 3
Расширение режима : CM (complete main)
Идентификатор кодека : A_AC3
Продолжительность : 53 м.
Вид битрейта : Постоянный
Битрейт : 192 Кбит/сек
Каналы : 2 канала
Расположение каналов : Front: L R
Частота : 48,0 КГц
Битовая глубина : 16 бит
Метод сжатия : С потерями
Размер потока : 73,3 Мбайт (2%)
Язык : English / English
Скриншоты видео
2010 Ilhan Ersahin - JazzMix Festival a Istanbul, Live at Babylone [HDTV 1080p] 02010 Ilhan Ersahin - JazzMix Festival a Istanbul, Live at Babylone [HDTV 1080p] 12010 Ilhan Ersahin - JazzMix Festival a Istanbul, Live at Babylone [HDTV 1080p] 22010 Ilhan Ersahin - JazzMix Festival a Istanbul, Live at Babylone [HDTV 1080p] 32010 Ilhan Ersahin - JazzMix Festival a Istanbul, Live at Babylone [HDTV 1080p] 42010 Ilhan Ersahin - JazzMix Festival a Istanbul, Live at Babylone [HDTV 1080p] 52010 Ilhan Ersahin - JazzMix Festival a Istanbul, Live at Babylone [HDTV 1080p] 62010 Ilhan Ersahin - JazzMix Festival a Istanbul, Live at Babylone [HDTV 1080p] 72010 Ilhan Ersahin - JazzMix Festival a Istanbul, Live at Babylone [HDTV 1080p] 82010 Ilhan Ersahin - JazzMix Festival a Istanbul, Live at Babylone [HDTV 1080p] 9
Download available for power users only.
500
Нет комментариев. Ваш будет первым!