Поиск

2010 Charles Lloyd Quartet - Jazz A Porquerolles [HDTV 1080i]

2010 Charles Lloyd Quartet - Jazz A Porquerolles [HDTV 1080i]
Состав:

Продолжительность: 62min
Год выпуска: 2011
Качество: HDTV
Контейнер: TS
Видео кодек: H.264
Аудио кодек: MpegAudio
Видео: h.264,1440*1080,~6mbts,25fps
Аудио: MpegAudio,256kbts,48kHz,2ch

Треклист:

01. Rabo de Nube
02. Sweet Georgia Brigt
03. Booker's Garden
04. Passin'Through
05. Caroline No
06. Tagi

Отчёт DVDInfo/MediaInfo/BDInfo
Общее
Идентификатор : 5800 (0x16A8)
Полное имя : \\Charles Lloyd\20110913 2257 - MEZZO HD - Intermezzo.ts
Формат : MPEG-TS
Размер файла : 2,99 Гбайт
Продолжительность : 1 ч. 2 м.
Режим общего битрейта : Переменный
Общий поток : 6880 Кбит/сек

Видео
Идентификатор : 2007 (0x7D7)
Идентификатор меню : 3507 (0xDB3)
Формат : AVC
Формат/Информация : Advanced Video Codec
Профиль формата : High@L4
Настройки формата : CABAC / 2 Ref Frames
Параметр CABAC формата : Да
Параметр RefFrames формата : 2 кадра
Параметр GOP формата : M=3, N=30
Идентификатор кодека : 27
Продолжительность : 1 ч. 2 м.
Вид битрейта : Переменный
Битрейт : 6281 Кбит/сек
Максимальный битрейт : 6400 Кбит/сек
Ширина : 1440 пикселей
Высота : 1080 пикселей
Соотношение сторон : 16:9
Частота кадров : 25,000 кадров/сек
Цветовое пространство : YUV
Субдискретизация насыщенности : 4:2:0
Битовая глубина : 8 бит
Тип развёртки : MBAFF
Метод сохранения типа развёртки : Чередующиеся поля
Порядок развёртки : Верхнее поле первое
Бит/(Пиксели*Кадры) : 0.162
Размер потока : 2,73 Гбайт (91%)
Цветовой диапазон : Limited
Основные цвета : BT.709
Характеристики трансфера : BT.709
Коэффициенты матрицы : BT.709

Аудио
Идентификатор : 3007 (0xBBF)
Идентификатор меню : 3507 (0xDB3)
Формат : MPEG Audio
Версия формата : Version 1
Профиль формата : Layer 2
Идентификатор кодека : 3
Продолжительность : 1 ч. 2 м.
Вид битрейта : Постоянный
Битрейт : 256 Кбит/сек
Каналы : 2 канала
Частота : 48,0 КГц
Частота кадров : 41,667 кадра/сек (1152 SPF)
Метод сжатия : С потерями
Задержка видео : -768 мс.
Размер потока : 114 Мбайт (4%)

Меню
Идентификатор : 1007 (0x3EF)
Идентификатор меню : 3507 (0xDB3)
Продолжительность : 1 ч. 2 м.
Список : 2007 (0x7D7) (AVC) / 3007 (0xBBF) (MPEG Audio)
Скриншоты видео
2010 Charles Lloyd Quartet - Jazz A Porquerolles [HDTV 1080i] 02010 Charles Lloyd Quartet - Jazz A Porquerolles [HDTV 1080i] 12010 Charles Lloyd Quartet - Jazz A Porquerolles [HDTV 1080i] 22010 Charles Lloyd Quartet - Jazz A Porquerolles [HDTV 1080i] 3
Download available for power users only.
467
Нет комментариев. Ваш будет первым!