Поиск

2009 SMV (Stanley Clarke, Marcus Miller & Victor Wooten) - Jazz a Vienne [HDTV 1080i]

2009 SMV (Stanley Clarke, Marcus Miller & Victor Wooten) - Jazz a Vienne [HDTV 1080i]
Стиль:
Время звучания:
00:52:11
Главы (разбивка по трекам):
нет
Качество:
HDTV
Контейнер:
TS
Состав:
  • Stanley Clarke - Bass, doublebass
  • Marcus Miller - Bass, Clarinet bass
  • Victor Wooten - Bass
  • Federico Gonzalez Pena - Keyboards
  • Derico Watson - Drums
Треклист:

01 - Maestros de Las Frecuencias Bajas
02 - Thunder
03 - Mongoose Walk
04 - Milano
05 - Grits
06 - School Days > Beat It

Видео:
AVC (h264),1920*1080i (16:9), 10,6Mbps, 25fps
Аудио#1:
MPEG2, 256kbps, 48kHz, 2ch
Описание:

Один раз в поколение вместе собираются таланты, перед необычностью, уникальностью и оригинальностью которых невозможно устоять. Вот что такое S M V: Stanley Clarke (Стэнли Кларк), Marcus Miller (Маркус Миллер), Victor Wooten (Виктор Вутен). О таком союзе мастеров баса поклонники мечтали уже 15 лет, постоянно обсуждая эту тему в чатах и на общих сборах и с замиранием сердца внимая периодическим обещаниям троих музыкантов найти время и попробовать выступить вместе.

Стэнли Кларка нельзя назвать иначе как живой легендой: он дал свободу бас-гитаре точно так же, как до него это сделали Луи Армстронг и Чарли Паркер со своими инструментами. Стэнли произвел решительный переворот в восприятии бас-гитары, показав, что она не обречена всегда быть фоновым инструментом, а может выступать и как мелодичный ведущий инструмент. Его влияние ощущается повсюду на протяжении многих лет.

Его совместная работа с Чиком Кореа, Элом Ди Меола и Лени Уайтом – Return to Forever – стала настоящей революцией на мировой музыкальной сцене: в смелом и неистовом смешении рока и джаза родилось новое направление – джаз-фьюжн. Дальнейшие совместные проекты с Джорджем Дюком (The Clarke/Duke Project), Китом Ричардсом и Роном Вудом (The New Barbarians), Жаном Люком Понтии и Элом Ди Меола (Rite of Strings) продемонстрировали всему миру бесконечную многогранность таланта этого крестного отца бас-гитары.

Многократный лауреат Grammy Маркус Миллер вырос среди аристократии джаза: в 16 лет он дебютировал с флейтистом Бобби Хамфри, вслед за чем последовало сотрудничество с Майлзом Дэвисом на протяжении шести альбомов, в трех из которых Маркус выступил продюсером. Вскоре он уже продюсировал хиты таких исполнителей, как Лютер Вандросс, Чак Хан, Роберта Флэк, Арета Франклин, Уэйн Шортер и Ал Джарро, одновременно выступая с забойными партиями на альбомах Дональда Фагена, The Brecker Brothers, Гровера Вашингтона Мл., Пола Саймона и прочих. В качестве сольного исполнителя он выпустил восемь альбомов, включая M2, удостоенный награды Grammy, что сделало Миллера единственным солирующим бас-гитаристом, получившим Grammy за лучший альбом современного джаза.

Как и Маркус, Виктор – это одинокое имя, запечатленное в сердцах поклонников бас-гитары, за которым стоит последний великий герой этого инструмента – Виктор Вутен. Около 20 лет назад Виктор и его брат Рой (известный также как Futureman) объединились с Ховардом Леви и Белой Флеком и создали смелый инновационный проект The Flecktones, который вскоре удостоился трех наград Grammy. Оставаясь в составе The Flecktones, Виктор начал сольную карьеру, выпустив замечательный дебютный альбом A Show of Hands, потрясший мир бас-гитары. Тем временем все – Брэнфорд Марсалис, Дэйв Мэтьюс, Брюс Хорнсби, Принс, Билл Эванс, Сьюзан Тедеши, Индиа Эйри – хотели заполучить Виктора для своих записей, и он с радостью принимал приглашения.

Отчёт DVDInfo/MediaInfo/BDInfo
Общее
Идентификатор : 14 (0xE)
Полное имя : \\SMV\20110707 2150 - Mezzo Live HD - ДЖАЗ.ts
Формат : MPEG-TS
Размер файла : 4,17 Гбайт
Продолжительность : 52 м. 3 с.
Режим общего битрейта : Переменный
Общий поток : 11,5 Мбит/сек

Видео
Идентификатор : 323 (0x143)
Идентификатор меню : 14103 (0x3717)
Формат : AVC
Формат/Информация : Advanced Video Codec
Профиль формата : Main@L4
Настройки формата : CABAC / 3 Ref Frames
Параметр CABAC формата : Да
Параметр RefFrames формата : 3 кадра
Параметр GOP формата : M=4, N=32
Идентификатор кодека : 27
Продолжительность : 52 м. 3 с.
Битрейт : 10,6 Мбит/сек
Ширина : 1 920 пикселей
Высота : 1 080 пикселей
Соотношение сторон : 16:9
Частота кадров : 25,000 кадров/сек
Стандарт вещания : Component
Цветовое пространство : YUV
Субдискретизация насыщенности : 4:2:0
Битовая глубина : 8 бит
Тип развёртки : Чересстрочная
Метод сохранения типа развёртки : Раздельные поля
Порядок развёртки : Верхнее поле первое
Бит/(Пиксели*Кадры) : 0.205
Размер потока : 3,87 Гбайт (93%)
Цветовой диапазон : Limited
Основные цвета : BT.709
Характеристики трансфера : BT.709
Коэффициенты матрицы : BT.709

Аудио
Идентификатор : 403 (0x193)
Идентификатор меню : 14103 (0x3717)
Формат : MPEG Audio
Версия формата : Version 1
Профиль формата : Layer 2
Идентификатор кодека : 4
Продолжительность : 52 м. 3 с.
Вид битрейта : Постоянный
Битрейт : 256 Кбит/сек
Каналы : 2 канала
Частота : 48,0 КГц
Частота кадров : 41,667 кадра/сек (1152 SPF)
Метод сжатия : С потерями
Задержка видео : -787 мс.
Размер потока : 95,3 Мбайт (2%)
Язык : French
Язык, дополнительно : Clean effects

Меню
Идентификатор : 1403 (0x57B)
Идентификатор меню : 14103 (0x3717)
Формат : AVC / MPEG Audio
Продолжительность : 52 м. 3 с.
Список : 323 (0x143) (AVC) / 403 (0x193) (MPEG Audio, French)
Язык : / French
По всем вопросам пишите личное сообщение пользователю M0p94ok.
637
Нет комментариев. Ваш будет первым!