Вы используете незарегистрированную версию компонента "Вкладки"!

Поиск

2009 Larry Carlton & Robben Ford - Autour de Blues [Blu-ray]

2009 Larry Carlton & Robben Ford - Autour de Blues [Blu-ray]
Состав:
  • Larry Carlton
  • Robben Ford
  • Francis Cabrel
  • Denys Lable
  • Michael Jones
  • Patrick Verbeke
Описание:

В конце 2006 года фестиваль "New Morning" подарил потрясающее выступление легендарных блюзовых исполнителей, специально прилетевших из Нашвилла в Париж.
Кульминацией 25ой годовщины фестиваля стал этот франко-американский гитарный саммит, впервые соединивший участников группы Autour du Blues (лучших французских студийных музыкантов) и двух великих американских блюзовых гитаристов: Larry Carlton и Robben Ford.
Это выступление имело грандиозный успех. Благодаря энтузиазму и большой дружбе музыкантов вышел этот памятный совместный диск с фестиваля "New Morning", который превратился в своеобразный клуб, куда можно прийти послушать и сыграть любимую музыку с людьми, которые вам нравятся.
Итак, все путешествие по "Round About the Blues"… с Larry Carlton, Robben Ford, Francis Cabrel, Denys Lable, Michael Jones, Patrick Verbeke и с их друзьями, объединенных вне рамок шоу-бизнеса, чтобы вернуть блюзу то, что он всегда им дарил.
Поистине памятное почитание великих хитов блюза и доказательство, что блюз не знает границы.

Дополнительная информация:

Дата записи: 7 декабря 2006
Год выпуска: 14 июля 2009
Лейбл: in-akustik
Продолжительность: 01:31:11
Качество: Blu-ray Single Disc (BD-25)
Формат: M2TS
Видео кодек: VC-1 
Aspect ratio: 1.78:1
Аудио кодек: AAC
Видео: VC-1 Video / 20463 kbps / 1080i / 29,970 fps / 16:9 / Advanced Profile 3
Аудио: English / LPCM Audio / 5.1 / 48 kHz / 4608 kbps / 16-bit
Аудио: English / DTS-HD Master Audio / 5.1 / 48 kHz / 2655 kbps / 16-bit (DTS Core: 5.1 / 48 kHz / 1509 kbps / 16-bit)
Аудио: English / Dolby Digital Audio / 2.0 / 48 kHz / 448 kbps

Отчёт DVDInfo/MediaInfo/BDInfo
Disc Title:
Disc Size: 22 532 672 443 bytes
Protection: AACS
BD-Java: No
BDInfo: 0.5.3
Notes:
BDINFO HOME:
Cinema Squid
http://www.cinemasquid.com/blu-ray/tools/bdinfo
INCLUDES FORUMS REPORT FOR:
AVS Forum Blu-ray Audio and Video Specifications Thread
http://www.avsforum.com/avs-vb/showthread.php?t=1155731
********************
PLAYLIST: 00001.MPLS
********************
<--- BEGIN FORUMS PASTE --->

Код:

Total   Video
Title                                                           Codec   Length  Movie Size      Disc Size       Bitrate Bitrate Main Audio Track                          Secondary Audio Track
-----                                                           ------  ------- --------------  --------------  ------- ------- ------------------                        ---------------------
00001.MPLS                                                      VC-1    1:31:11 20 405 901 312  22 532 672 443  29,84   20,46   LPCM 5.1 4608Kbps (48kHz/16-bit)          DTS-HD Master 5.1 2655Kbps (48kHz/16-bit)

Код:

DISC INFO:
Disc Title:
Disc Size:      22 532 672 443 bytes
Protection:     AACS
BD-Java:        No
BDInfo:         0.5.3
PLAYLIST REPORT:
Name:                   00001.MPLS
Length:                 1:31:11 (h:m:s)
Size:                   20 405 901 312 bytes
Total Bitrate:          29,84 Mbps
VIDEO:
Codec                   Bitrate             Description
-----                   -------             -----------
VC-1 Video              20463 kbps          1080i / 29,970 fps / 16:9 / Advanced Profile 3
AUDIO:
Codec                           Language        Bitrate         Description
-----                           --------        -------         -----------
LPCM Audio                      English         4608 kbps       5.1 / 48 kHz / 4608 kbps / 16-bit
DTS-HD Master Audio             English         2655 kbps       5.1 / 48 kHz / 2655 kbps / 16-bit (DTS Core: 5.1 / 48 kHz / 1509 kbps / 16-bit)
Dolby Digital Audio             English         448 kbps        2.0 / 48 kHz / 448 kbps
FILES:
Name            Time In         Length          Size            Total Bitrate
----            -------         ------          ----            -------------
00001.M2TS      0:00:00.000     1:31:11.165     20 405 901 312  29 838
CHAPTERS:
Number          Time In         Length          Avg Video Rate  Max 1-Sec Rate  Max 1-Sec Time  Max 5-Sec Rate  Max 5-Sec Time  Max 10Sec Rate  Max 10Sec Time  Avg Frame Size  Max Frame Size  Max Frame Time
------          -------         ------          --------------  --------------  --------------  --------------  --------------  --------------  --------------  --------------  --------------  --------------
1               0:00:00.000     0:06:43.770     21 305 kbps     34 929 kbps     00:01:52.912    31 372 kbps     00:05:49.482    29 083 kbps     00:05:45.011    89 086 bytes    287 832 bytes   00:02:28.481
2               0:06:43.770     0:04:47.787     19 841 kbps     33 639 kbps     00:09:36.776    30 054 kbps     00:09:34.607    29 891 kbps     00:09:34.540    82 995 bytes    297 573 bytes   00:09:28.968
3               0:11:31.557     0:09:13.052     21 357 kbps     33 990 kbps     00:15:20.386    30 550 kbps     00:15:17.116    29 940 kbps     00:15:12.111    89 369 bytes    353 154 bytes   00:15:25.925
4               0:20:44.610     0:07:38.791     20 457 kbps     35 457 kbps     00:25:42.941    31 930 kbps     00:24:25.931    30 009 kbps     00:24:24.496    85 541 bytes    282 425 bytes   00:27:15.800
5               0:28:23.401     0:06:06.199     20 830 kbps     35 240 kbps     00:31:14.105    31 993 kbps     00:31:13.771    29 945 kbps     00:31:10.235    87 052 bytes    298 389 bytes   00:31:54.412
6               0:34:29.600     0:06:44.570     20 210 kbps     31 624 kbps     00:38:37.548    29 459 kbps     00:38:34.612    27 747 kbps     00:38:33.711    84 559 bytes    316 037 bytes   00:38:46.490
7               0:41:14.171     0:08:17.163     19 615 kbps     32 091 kbps     00:46:34.191    28 988 kbps     00:48:09.219    27 343 kbps     00:46:21.411    81 997 bytes    314 960 bytes   00:46:20.177
8               0:49:31.335     0:08:02.048     21 777 kbps     31 657 kbps     00:53:24.834    29 338 kbps     00:53:23.366    27 627 kbps     00:56:01.991    91 111 bytes    299 517 bytes   00:55:49.179
9               0:57:33.383     0:05:26.259     19 851 kbps     33 814 kbps     00:59:46.516    31 324 kbps     00:59:46.716    30 083 kbps     00:59:42.645    83 068 bytes    289 855 bytes   00:59:51.087
10              1:02:59.642     0:11:39.031     19 945 kbps     33 789 kbps     01:12:46.528    32 108 kbps     01:12:45.828    29 227 kbps     01:12:42.691    83 365 bytes    299 867 bytes   01:09:27.496
11              1:14:38.674     0:04:38.611     20 353 kbps     34 083 kbps     01:17:15.697    30 199 kbps     01:17:12.761    26 722 kbps     01:17:07.756    85 083 bytes    283 844 bytes   01:17:16.298
12              1:19:17.285     0:06:15.375     19 810 kbps     33 059 kbps     01:22:42.057    29 404 kbps     01:23:15.223    27 316 kbps     01:23:14.589    82 831 bytes    302 222 bytes   01:22:59.975
13              1:25:32.660     0:05:38.504     20 290 kbps     30 170 kbps     01:29:01.402    28 105 kbps     01:28:57.632    27 691 kbps     01:28:57.331    84 844 bytes    298 097 bytes   01:29:10.712
STREAM DIAGNOSTICS:
File            PID             Type            Codec           Language                Seconds                 Bitrate                 Bytes           Packets
----            ---             ----            -----           --------                --------------          --------------          -------------   -----
00001.M2TS      4113 (0x1011)   0xEA            VC-1                                    5471,099                20 463                  13 994 595 294  76 156 546
00001.M2TS      4352 (0x1100)   0x86            DTS-HD MA       eng (English)           5471,099                2 655                   1 815 963 116   10 723 395
00001.M2TS      4353 (0x1101)   0x80            LPCM            eng (English)           5471,099                4 614                   3 155 770 856   17 507 744
00001.M2TS      4354 (0x1102)   0x81            AC3             eng (English)           5471,099                448                     306 385 408     1 709 740

<---- END FORUMS PASTE ---->
QUICK SUMMARY:
Disc Title:
Disc Size: 22 532 672 443 bytes
Protection: AACS
BD-Java: No
Playlist: 00001.MPLS
Size: 20 405 901 312 bytes
Length: 1:31:11
Total Bitrate: 29,84 Mbps
Video: VC-1 Video / 20463 kbps / 1080i / 29,970 fps / 16:9 / Advanced Profile 3
Audio: English / LPCM Audio / 5.1 / 48 kHz / 4608 kbps / 16-bit
Audio: English / DTS-HD Master Audio / 5.1 / 48 kHz / 2655 kbps / 16-bit (DTS Core: 5.1 / 48 kHz / 1509 kbps / 16-bit)
Audio: English / Dolby Digital Audio / 2.0 / 48 kHz / 448 kbps
********************
PLAYLIST: 00002.MPLS
********************
<--- BEGIN FORUMS PASTE --->
Код:

Total   Video
Title                                                           Codec   Length  Movie Size      Disc Size       Bitrate Bitrate Main Audio Track                          Secondary Audio Track
-----                                                           ------  ------- --------------  --------------  ------- ------- ------------------                        ---------------------
00002.MPLS                                                      VC-1    0:05:11 1 152 829 440   22 532 672 443  29,65   20,12   LPCM 5.1 4608Kbps (48kHz/16-bit)          DTS-HD Master 5.1 2817Kbps (48kHz/16-bit)

Код:

DISC INFO:
Disc Title:
Disc Size:      22 532 672 443 bytes
Protection:     AACS
BD-Java:        No
BDInfo:         0.5.3
PLAYLIST REPORT:
Name:                   00002.MPLS
Length:                 0:05:11 (h:m:s)
Size:                   1 152 829 440 bytes
Total Bitrate:          29,65 Mbps
VIDEO:
Codec                   Bitrate             Description
-----                   -------             -----------
VC-1 Video              20119 kbps          1080i / 29,970 fps / 16:9 / Advanced Profile 3
AUDIO:
Codec                           Language        Bitrate         Description
-----                           --------        -------         -----------
LPCM Audio                      German          4608 kbps       5.1 / 48 kHz / 4608 kbps / 16-bit
DTS-HD Master Audio             German          2817 kbps       5.1 / 48 kHz / 2817 kbps / 16-bit (DTS Core: 5.1 / 48 kHz / 1509 kbps / 16-bit)
Dolby Digital Audio             German          448 kbps        2.0 / 48 kHz / 448 kbps
FILES:
Name            Time In         Length          Size            Total Bitrate
----            -------         ------          ----            -------------
00003.M2TS      0:00:00.000     0:05:11.077     1 152 829 440   29 647
CHAPTERS:
Number          Time In         Length          Avg Video Rate  Max 1-Sec Rate  Max 1-Sec Time  Max 5-Sec Rate  Max 5-Sec Time  Max 10Sec Rate  Max 10Sec Time  Avg Frame Size  Max Frame Size  Max Frame Time
------          -------         ------          --------------  --------------  --------------  --------------  --------------  --------------  --------------  --------------  --------------  --------------
1               0:00:00.000     0:05:11.077     20 119 kbps     33 719 kbps     00:00:33.933    30 754 kbps     00:00:30.964    28 851 kbps     00:00:25.959    84 110 bytes    320 526 bytes   00:03:24.904
STREAM DIAGNOSTICS:
File            PID             Type            Codec           Language                Seconds                 Bitrate                 Bytes           Packets
----            ---             ----            -----           --------                --------------          --------------          -------------   -----
00003.M2TS      4113 (0x1011)   0xEA            VC-1                                    311,011                 20 123                  782 311 388     4 257 326
00003.M2TS      4352 (0x1100)   0x86            DTS-HD MA       deu (German)            311,011                 2 818                   109 535 292     643 852
00003.M2TS      4353 (0x1101)   0x80            LPCM            deu (German)            311,011                 4 615                   179 430 944     995 456
00003.M2TS      4354 (0x1102)   0x81            AC3             deu (German)            311,011                 448                     17 421 824      97 220

<---- END FORUMS PASTE ---->
QUICK SUMMARY:
Disc Title:
Disc Size: 22 532 672 443 bytes
Protection: AACS
BD-Java: No
Playlist: 00002.MPLS
Size: 1 152 829 440 bytes
Length: 0:05:11
Total Bitrate: 29,65 Mbps
Video: VC-1 Video / 20119 kbps / 1080i / 29,970 fps / 16:9 / Advanced Profile 3
Audio: German / LPCM Audio / 5.1 / 48 kHz / 4608 kbps / 16-bit
Audio: German / DTS-HD Master Audio / 5.1 / 48 kHz / 2817 kbps / 16-bit (DTS Core: 5.1 / 48 kHz / 1509 kbps / 16-bit)
Audio: German / Dolby Digital Audio / 2.0 / 48 kHz / 448 kbps
********************
PLAYLIST: 00003.MPLS
********************
<--- BEGIN FORUMS PASTE --->
Код:

Total   Video
Title                                                           Codec   Length  Movie Size      Disc Size       Bitrate Bitrate Main Audio Track                          Secondary Audio Track
-----                                                           ------  ------- --------------  --------------  ------- ------- ------------------                        ---------------------
00003.MPLS                                                      VC-1    0:03:45 838 643 712     22 532 672 443  29,71   20,21   LPCM 5.1 4608Kbps (48kHz/16-bit)          DTS-HD Master 5.1 2783Kbps (48kHz/16-bit)

Код:

DISC INFO:
Disc Title:
Disc Size:      22 532 672 443 bytes
Protection:     AACS
BD-Java:        No
BDInfo:         0.5.3
PLAYLIST REPORT:
Name:                   00003.MPLS
Length:                 0:03:45 (h:m:s)
Size:                   838 643 712 bytes
Total Bitrate:          29,71 Mbps
VIDEO:
Codec                   Bitrate             Description
-----                   -------             -----------
VC-1 Video              20212 kbps          1080i / 29,970 fps / 16:9 / Advanced Profile 3
AUDIO:
Codec                           Language        Bitrate         Description
-----                           --------        -------         -----------
LPCM Audio                      German          4608 kbps       5.1 / 48 kHz / 4608 kbps / 16-bit
DTS-HD Master Audio             German          2783 kbps       5.1 / 48 kHz / 2783 kbps / 16-bit (DTS Core: 5.1 / 48 kHz / 1509 kbps / 16-bit)
Dolby Digital Audio             German          448 kbps        2.0 / 48 kHz / 448 kbps
FILES:
Name            Time In         Length          Size            Total Bitrate
----            -------         ------          ----            -------------
00004.M2TS      0:00:00.000     0:03:45.825     838 643 712     29 709
CHAPTERS:
Number          Time In         Length          Avg Video Rate  Max 1-Sec Rate  Max 1-Sec Time  Max 5-Sec Rate  Max 5-Sec Time  Max 10Sec Rate  Max 10Sec Time  Avg Frame Size  Max Frame Size  Max Frame Time
------          -------         ------          --------------  --------------  --------------  --------------  --------------  --------------  --------------  --------------  --------------  --------------
1               0:00:00.000     0:03:45.825     20 212 kbps     33 153 kbps     00:01:59.252    30 292 kbps     00:01:57.650    28 282 kbps     00:01:57.650    84 578 bytes    309 866 bytes   00:02:00.954
STREAM DIAGNOSTICS:
File            PID             Type            Codec           Language                Seconds                 Bitrate                 Bytes           Packets
----            ---             ----            -----           --------                --------------          --------------          -------------   -----
00004.M2TS      4113 (0x1011)   0xEA            VC-1                                    225,726                 20 221                  570 560 894     3 104 961
00004.M2TS      4352 (0x1100)   0x86            DTS-HD MA       deu (German)            225,726                 2 784                   78 550 036      462 129
00004.M2TS      4353 (0x1101)   0x80            LPCM            deu (German)            225,726                 4 617                   130 258 744     722 656
00004.M2TS      4354 (0x1102)   0x81            AC3             deu (German)            225,726                 448                     12 647 936      70 580

<---- END FORUMS PASTE ---->
QUICK SUMMARY:
Disc Title:
Disc Size: 22 532 672 443 bytes
Protection: AACS
BD-Java: No
Playlist: 00003.MPLS
Size: 838 643 712 bytes
Length: 0:03:45
Total Bitrate: 29,71 Mbps
Video: VC-1 Video / 20212 kbps / 1080i / 29,970 fps / 16:9 / Advanced Profile 3
Audio: German / LPCM Audio / 5.1 / 48 kHz / 4608 kbps / 16-bit
Audio: German / DTS-HD Master Audio / 5.1 / 48 kHz / 2783 kbps / 16-bit (DTS Core: 5.1 / 48 kHz / 1509 kbps / 16-bit)
Audio: German / Dolby Digital Audio / 2.0 / 48 kHz / 448 kbps
********************
PLAYLIST: 00000.MPLS
********************
<--- BEGIN FORUMS PASTE --->
Код:

Total   Video
Title                                                           Codec   Length  Movie Size      Disc Size       Bitrate Bitrate Main Audio Track                          Secondary Audio Track
-----                                                           ------  ------- --------------  --------------  ------- ------- ------------------                        ---------------------
00000.MPLS                                                      VC-1    0:00:34 128 311 296     22 532 672 443  29,33   25,64   DTS-HD Master 5.1 2171Kbps (48kHz/16-bit)

Код:

DISC INFO:
Disc Title:
Disc Size:      22 532 672 443 bytes
Protection:     AACS
BD-Java:        No
BDInfo:         0.5.3
PLAYLIST REPORT:
Name:                   00000.MPLS
Length:                 0:00:34 (h:m:s)
Size:                   128 311 296 bytes
Total Bitrate:          29,33 Mbps
VIDEO:
Codec                   Bitrate             Description
-----                   -------             -----------
VC-1 Video              25637 kbps          1080p / 23,976 fps / 16:9 / Advanced Profile 3
AUDIO:
Codec                           Language        Bitrate         Description
-----                           --------        -------         -----------
DTS-HD Master Audio             German          2171 kbps       5.1 / 48 kHz / 2171 kbps / 16-bit (DTS Core: 5.1 / 48 kHz / 1509 kbps / 16-bit)
FILES:
Name            Time In         Length          Size            Total Bitrate
----            -------         ------          ----            -------------
00000.M2TS      0:00:00.000     0:00:34.993     128 311 296     29 334
CHAPTERS:
Number          Time In         Length          Avg Video Rate  Max 1-Sec Rate  Max 1-Sec Time  Max 5-Sec Rate  Max 5-Sec Time  Max 10Sec Rate  Max 10Sec Time  Avg Frame Size  Max Frame Size  Max Frame Time
------          -------         ------          --------------  --------------  --------------  --------------  --------------  --------------  --------------  --------------  --------------  --------------
1               0:00:00.000     0:00:34.993     25 637 kbps     55 370 kbps     00:00:27.235    41 692 kbps     00:00:26.985    38 520 kbps     00:00:24.232    135 435 bytes   621 354 bytes   00:00:15.014
STREAM DIAGNOSTICS:
File            PID             Type            Codec           Language                Seconds                 Bitrate                 Bytes           Packets
----            ---             ----            -----           --------                --------------          --------------          -------------   -----
00000.M2TS      4113 (0x1011)   0xEA            VC-1                                    34,868                  25 729                  112 139 935     609 968
00000.M2TS      4352 (0x1100)   0x86            DTS-HD MA       deu (German)            34,868                  2 179                   9 498 308       57 117

<---- END FORUMS PASTE ---->
QUICK SUMMARY:
Disc Title:
Disc Size: 22 532 672 443 bytes
Protection: AACS
BD-Java: No
Playlist: 00000.MPLS
Size: 128 311 296 bytes
Length: 0:00:34
Total Bitrate: 29,33 Mbps
Video: VC-1 Video / 25637 kbps / 1080p / 23,976 fps / 16:9 / Advanced Profile 3
Audio: German / DTS-HD Master Audio / 5.1 / 48 kHz / 2171 kbps / 16-bit (DTS Core: 5.1 / 48 kHz / 1509 kbps / 16-bit)
Any questions - support@pro-jazz.com. Есть вопросы - support@pro-jazz.com
448
Нет комментариев. Ваш будет первым!