Поиск

2009 Drew Gress' Jagged Sky - at Knitting Factory [HDTV 1080p]

2009 Drew Gress' Jagged Sky - at Knitting Factory [HDTV 1080p]
Главы (разбивка по трекам):
нет
Качество:
HDTV
Контейнер:
MP4
Состав:
Треклист:

1. No John Wayne
2. Zaftig Redux
3. My Refrain
4. 29
5. Dolomite

Видео:
AVC (h.264) / 1920x1080 / progressive / 16:9 / 9 670 kbps / 25.00 fps
Аудио#1:
AAC LC / 128-384kbps / variable / 48kHz / 2ch stereo
Описание:

Во вторник вечером в Tap Bar на Трикотажной фабрике все было как в старые добрые времена. Публика была крепкой и молодой, наполовину шумной, наполовину восторженной, воодушевленной. Музыка была нарочито динамичной, ударной и с крутыми крещендо. Одна группа, возглавляемая барабанщиком Нэшитом Уэйтсом, подходила к своим мелодиям через облако бурных действий; другая, возглавляемая басистом Дрю Грессом, пересматривала музыку десятилетней давности, что казалось вполне уместным.

Телевизионные камеры подсказали, что это необычная сегодняшняя встреча. (Они снимали группу мистера Уэйтса для французской компании Mezzo TV.) Комментарий Адама Шатца, организовавшего вечер, был не менее поучительным. В какой-то момент он провозгласил предстоящее шоу "последним вечером джаза в Knit". Ему не нужно было упоминать о том, что Knitting Factory переезжает в Уильямсбург (Бруклин) из Трибека или что джаз в последние годы играл лишь символическую роль в его программах.

В декабре прошлого года мистер Шатц, кустистый бородатый клавишник в возрасте около 20 лет, начал заказывать в клубе двойные биллы, связанные с джазом, в рамках серии, которую он называет "Поиск и восстановление". Это была предпоследняя серия: в финале на следующей неделе выступят шесть групп на двух сценах. Очевидной моделью является Winter Jazzfest, не связанный с джазом фестиваль, который проводится здесь последние четыре года. Как и в случае с этим мероприятием, будущее "Поиска и восстановления" неясно, хотя г-н Шатц и его партнер по продюсированию Джеймс Донахью нацелены на то, чтобы как-то его продолжить.

Спрос на такое мероприятие очевиден. На первом концерте вторника, который был переполнен, мистер Уэйтс выступал вместе с тенор-саксофонистом Абрахамом Бертоном и его коллегой-барабанщиком Эриком Макферсоном. (Эта же группа, выступающая как Aethereal Bace, играла в этом году на Winter Jazzfest). Начав с открытого перкуссионного шелеста молоточков по томам, щеток по тарелкам, группа неуклонно двигалась вперед, набирая плотность и скорость.

Тон и гармонический язык мистера Бертона напомнили о Джоне Колтрейне последнего времени, особенно (и, возможно, неизбежно) об альбоме "Interstellar Space", записанном с барабанщиком Рашидом Али. Общая атмосфера была призывной и наводящей на мысли о духовности: "3rd Eye Punta", одна из двух пьес мистера Бертона, кружилась вокруг медитативного ядра.

А взаимодействие мистера Уэйтса и мистера Макферсона было источником вечного удивления. В тех редких случаях, когда они вместе сходились на груве, их движение казалось размытым двойным воздействием, и от этого еще более убедительным.

В отличие от них группа Jagged Sky под руководством мистера Гресса, с Дэвидом Бинни на альт-саксофоне, Беном Мондером на гитаре и Кенни Воллесеном на барабанах, наделила свои абстракции подтекстом точности. "Dolomite", открывшая сет, медленно и незаметно сгущалась, прежде чем перейти в эмфатический режим. Более новая композиция, "No John Wayne", наложила свою плавающую мелодию на просачивающийся ритм, в котором каждая партия была на своем месте.

Кульминацией стала "29", мелодия в стиле фри-боп с неровной мелодической линией. Захватывающей ее сделала открытая сольная секция с потрясающей, проливной работой как мистера Мондера, так и мистера Бинни. В игре был жар и шум, но также и дух порядка: после зажигательных соло и жутковатой интерлюдии мистер Гресс и его команда вернули песню домой.
https://www.nytimes.com/2008/11/27/arts/music/27sear.html

 

Отчёт DVDInfo/MediaInfo/BDInfo
Полное имя : \\Drew Gress\Drew Gress' Jagged Sky - At Knitting Factory 2009.mp4
Формат : MPEG-4
Профиль формата : Base Media / Version 2
Идентификатор кодека : mp42
Размер файла : 3,74 Гбайт
Продолжительность : 53 м.
Общий поток : 10,1 Мбит/сек
Дата кодирования : UTC 2014-02-03 11:44:24
Дата пометки : UTC 2014-02-03 11:44:24
Видео
Идентификатор : 2
Формат : AVC
Формат/Информация : Advanced Video Codec
Профиль формата : Main@L4.1
Параметр CABAC формата : Да
Параметр ReFrames формата : 2 кадра
Идентификатор кодека : avc1
Идентификатор кодека/Информация : Advanced Video Coding
Продолжительность : 53 м.
Вид битрейта : Переменный
Битрейт : 9670 Кбит/сек
Максимальный битрейт : 10,0 Мбит/сек
Ширина : 1920 пикселей
Высота : 1088 пикселей
Высота оригинала : 1080 пикселей
Соотношение сторон : 16:9
Соотношение сторон в оригинале : 16:9
Режим частоты кадров : Постоянный
Частота кадров : 25,000 кадров/сек
Частота кадров в оригинале : 12,500 кадров/сек
Цветовое пространство : YUV
Субдискретизация насыщенности : 4:2:0
Битовая глубина : 8 бит
Тип развёртки : Прогрессивная
Бит/(Пиксели*Кадры) : 0.185
Размер потока : 3,60 Гбайт (96%)
Язык : English
Дата кодирования : UTC 2014-02-03 11:44:24
Дата пометки : UTC 2014-02-03 11:44:24
Аудио
Идентификатор : 1
Формат : AAC
Формат/Информация : Advanced Audio Codec
Профиль формата : LC
Идентификатор кодека : 40
Продолжительность : 53 м.
Вид битрейта : Постоянный
Битрейт : 384 Кбит/сек
Номинальный битрейт : 128 Кбит/сек
Каналы : 2 канала
Расположение каналов : Front: L R
Частота : 48,0 КГц
Метод сжатия : С потерями
Размер потока : 146 Мбайт (4%)
Язык : English
Дата кодирования : UTC 2014-02-03 11:44:24
Дата пометки : UTC 2014-02-03 11:44:24
Any questions - support@pro-jazz.com
To become a power user - read FAQ.
158
Нет комментариев. Ваш будет первым!