Вы используете незарегистрированную версию компонента "Вкладки"!

Поиск

2007 Norah Jones - Live on Austin City Limits [HDTV 1080i]

2007 Norah Jones - Live on Austin City Limits [HDTV 1080i]
Время звучания:
00:54:30
Главы (разбивка по трекам):
нет
Качество:
HDTV
Контейнер:
TS
Треклист:

01. Come Away with Me
02. The Sun Doesn't Like You
03. Thinking About You
04. Be My Somebody
05. Rosie's Lullaby
06. Sunrise
07. Not Too Late
08. Sinkin' Soon
09. My Dear Country
10. Little Room
11. Broken
12. Creepin' In
13. Hands on the Wheel

Видео:
MPEG-2 / 1902x1080i / 13.3 Mbps / 29.970 fps
Аудио#1:
Dolby AC3 / 384 Kbps / 48.0 KHz / 6 channels
Отчёт DVDInfo/MediaInfo/BDInfo
General
ID : 1 (0x1)
Complete name : \Austin.City.Limits.Norah.Jones.1080i.DD5.1.ts
Format : MPEG-TS
File size : 5.47 GiB
Duration : 54mn 30s
Overall bit rate mode : Variable
Overall bit rate : 14.4 Mbps
Video
ID : 17 (0x11)
Menu ID : 1 (0x1)
Format : MPEG Video
Format version : Version 2
Format profile : Main@High
Format settings, BVOP : Yes
Format settings, Matrix : Default
Format settings, GOP : M=3, N=15
Codec ID : 2
Duration : 54mn 30s
Bit rate mode : Variable
Bit rate : 13.3 Mbps
Maximum bit rate : 38.8 Mbps
Width : 1 920 pixels
Height : 1 080 pixels
Display aspect ratio : 16:9
Frame rate : 29.970 fps
Color space : YUV
Chroma subsampling : 4:2:0
Bit depth : 8 bits
Scan type : Interlaced
Scan order : Top Field First
Compression mode : Lossy
Bits/(Pixel*Frame) : 0.214
Time code of first frame : 00:00:00;00
Time code source : Group of pictures header
Stream size : 5.05 GiB (92%)
Audio
ID : 20 (0x14)
Menu ID : 1 (0x1)
Format : AC-3
Format/Info : Audio Coding 3
Mode extension : CM (complete main)
Format settings, Endianness : Big
Codec ID : 129
Duration : 54mn 30s
Bit rate mode : Constant
Bit rate : 384 Kbps
Channel(s) : 6 channels
Channel positions : Front: L C R, Side: L R, LFE
Sampling rate : 48.0 KHz
Bit depth : 16 bits
Compression mode : Lossy
Stream size : 150 MiB (3%)
Text #1
ID : 17 (0x11)-CC1
Menu ID : 1 (0x1)
Format : EIA-608
Muxing mode : A/53 / DTVCC Transport
Muxing mode, more info : Muxed in Video #1
Duration : 54mn 30s
Bit rate mode : Constant
Stream size : 0.00 Byte (0%)
Text #2
ID : 17 (0x11)-1
Menu ID : 1 (0x1)
Format : EIA-708
Muxing mode : A/53 / DTVCC Transport
Muxing mode, more info : Muxed in Video #1
Duration : 54mn 30s
Bit rate mode : Constant
Stream size : 0.00 Byte (0%)
Any questions - support@pro-jazz.com.
Есть вопросы - support@pro-jazz.com
196
Нет комментариев. Ваш будет первым!