Поиск

2007 Amy Winehouse - 45th At Night Concert [HDTV 1080i]

2007 Amy Winehouse - 45th At Night Concert [HDTV 1080i]
Треклист:

 

1. Back To Black
2. Love Is A Losing Game (feat. Mos Def)
3. Rehab
4. Me & Mr. Jones
5. Tears Dry On Their Own
6. You Know I'm No Good

Жанр: Soul, R&B, Jazz
Продолжительность: 22:18
Год выпуска: 2007

Качество: HDTV
Контейнер: TS
Видео кодек: MPEG2
Аудио кодек: AC3
Видео: 1920x1080 15.7 Mbps 29.970 fps
Аудио: 384 Kbps 48.0 KHz 2 channels

Отчёт DVDInfo/MediaInfo/BDInfo
Общее
Идентификатор : 1 (0x1)
Полное имя : \\Amy Winehouse\45th at Night - Amy Winehouse.ts
Формат : MPEG-TS
Размер файла : 2,61 Гбайт
Продолжительность : 22 м. 19 с.
Режим общего битрейта : Переменный
Общий поток : 16,8 Мбит/сек
Ограничение по возрасту : TV-PG (L)

Видео
Идентификатор : 540 (0x21C)
Идентификатор меню : 1 (0x1)
Формат : MPEG Video
Версия формата : Version 2
Профиль формата : Main@High
Настройки формата : CustomMatrix / BVOP
Параметр BVOP формата : Да
Параметр матрицы формата : Выборочная
Параметр GOP формата : M=3, N=15
Структура изображения : Frame
Идентификатор кодека : 2
Продолжительность : 22 м. 18 с.
Вид битрейта : Переменный
Битрейт : 15,5 Мбит/сек
Максимальный битрейт : 18,0 Мбит/сек
Ширина : 1920 пикселей
Высота : 1080 пикселей
Соотношение сторон : 16:9
Частота кадров : 29,970 (30000/1001) кадров/сек
Цветовое пространство : YUV
Субдискретизация насыщенности : 4:2:0
Битовая глубина : 8 бит
Тип развёртки : Чересстрочная
Порядок развёртки : Верхнее поле первое
Метод сжатия : С потерями
Бит/(Пиксели*Кадры) : 0.250
Временной код первого кадра : 00:00:00;00
Оригинал временного кода : Group of pictures header
GOP, открыто/закрыто : Открыто
Размер потока : 2,42 Гбайт (93%)

Аудио
Идентификатор : 539 (0x21B)
Идентификатор меню : 1 (0x1)
Формат : AC-3
Формат/Информация : Audio Coding 3
Коммерческое название : Dolby Digital
Идентификатор кодека : 129
Продолжительность : 22 м. 18 с.
Вид битрейта : Постоянный
Битрейт : 384 Кбит/сек
Каналы : 2 канала
Channel layout : L R
Частота : 48,0 КГц
Частота кадров : 31,250 кадров/сек (1536 SPF)
Битовая глубина : 16 бит
Метод сжатия : С потерями
Задержка видео : 15 мс.
Размер потока : 61,3 Мбайт (2%)
Язык : English
ServiceKind/String : Complete Main

Текст #1
Идентификатор : 540 (0x21C)-CC1
Идентификатор меню : 1 (0x1)
Формат : EIA-608
Режим смешивания : A/53 / DTVCC Transport
Режим смешивания, доп. информация : Muxed in Video #1
Продолжительность : 22 м. 18 с.
Вид битрейта : Постоянный
Размер потока : 0,00 байт (0%)
CaptionServiceName : CC1

Текст #2
Идентификатор : 540 (0x21C)-1
Идентификатор меню : 1 (0x1)
Формат : EIA-708
Режим смешивания : A/53 / DTVCC Transport
Режим смешивания, доп. информация : Muxed in Video #1
Продолжительность : 22 м. 18 с.
Вид битрейта : Постоянный
Размер потока : 0,00 байт (0%)
Скриншоты видео
2007 Amy Winehouse - 45th At Night Concert [HDTV 1080i] 02007 Amy Winehouse - 45th At Night Concert [HDTV 1080i] 12007 Amy Winehouse - 45th At Night Concert [HDTV 1080i] 22007 Amy Winehouse - 45th At Night Concert [HDTV 1080i] 3
По всем вопросам пишите личное сообщение пользователю M0p94ok.
414
Нет комментариев. Ваш будет первым!