Вы используете незарегистрированную версию компонента "Вкладки"!

Поиск

2006 Legends of Jazz with Ramsey Lewis: Showcase [Blu-ray]

2006 Legends of Jazz with Ramsey Lewis: Showcase [Blu-ray]
Главы (разбивка по трекам):
есть
Качество:
Blu-ray
Контейнер:
BDMV
Состав:
Треклист:

1. AL JARREAU, KURT ELLING
2. CHRIS BOTTI
3. MARCUS MILLER, GEORGE DUKE, LEE RITENOUR
4. DAVID SANBORN, PHIL WOODS
5. CHICK COREA
6. ROBERT CRAY, KEB`MO`
7. BENNY GOLSON
8. IVAN LINS
9. CLARK TERRY
10. JANE MONHEIT, JOHN PIZZARELLI
11. DAVE VALENTIN
12. DAVE BRUBECK, BILLY TAYLOR
13. RAMSEY LEWIS

Видео:
MPEG2 / 1920x1080i / 16:9 / 40Mbps / 29,97fps
Аудио#1:
Dolby Digital 5.1 448 kbps 6ch / Dolby TrueHD 448 kbps 6ch / PCM 24-48kHz Stereo
Отчёт DVDInfo/MediaInfo/BDInfo
Общее
Идентификатор : 0 (0x0)
Полное имя : \\Nasf8f4eb\7\Videos\Blu-Ray\Ramsey Lewis\2006 Ramsey Lewis - Legends of Jazz Showcase [Blu-ray]\BDMV\STREAM\00005.m2ts
Формат : BDAV
Формат/Информация : Blu-ray Video
Размер файла : 16,0 Гбайт
Продолжительность : 55 м. 44 с.
Режим общего битрейта : Переменный
Общий поток : 41,0 Мбит/сек
Максимальный общий битрейт : 48,0 Мбит/сек

Видео
Идентификатор : 4113 (0x1011)
Идентификатор меню : 1 (0x1)
Формат : MPEG Video
Версия формата : Version 2
Профиль формата : Main@High
Настройки формата : CustomMatrix / BVOP
Параметр BVOP формата : Да
Параметр матрицы формата : Выборочная
Параметр GOP формата : Variable
Структура изображения : Frame
Идентификатор кодека : 2
Продолжительность : 55 м. 44 с.
Вид битрейта : Переменный
Битрейт : 36,2 Мбит/сек
Максимальный битрейт : 40,0 Мбит/сек
Ширина : 1 920 пикселей
Высота : 1 080 пикселей
Соотношение сторон : 16:9
Частота кадров : 29,970 (30000/1001) кадров/сек
Цветовое пространство : YUV
Субдискретизация насыщенности : 4:2:0
Битовая глубина : 8 бит
Тип развёртки : Чересстрочная
Порядок развёртки : Верхнее поле первое
Метод сжатия : С потерями
Бит/(Пиксели*Кадры) : 0.582
Временной код первого кадра : 00:00:00;00
Оригинал временного кода : Group of pictures header
GOP, открыто/закрыто : Открыто
GOP, открыто/закрыто на первом кадре : Закрыто
Размер потока : 14,1 Гбайт (88%)

Аудио #1
Идентификатор : 4352 (0x1100)
Идентификатор меню : 1 (0x1)
Формат : MLP FBA
Формат/Информация : Meridian Lossless Packing FBA
Коммерческое название : Dolby TrueHD
Режим смешивания : Stream extension
Идентификатор кодека : 131
Продолжительность : 55 м. 44 с.
Вид битрейта : Переменный
Битрейт : 448 Кбит/сек
Максимальный битрейт : 5 742 Кбит/сек
Каналы : 6 каналов
Channel layout : L R C LFE Ls Rs
Частота : 48,0 КГц
Частота кадров : 31,250 кадров/сек (1536 SPF)
Метод сжатия : Без потерь
Размер потока : 179 Мбайт (1%)
Service kind : Complete Main

Аудио #2
Идентификатор : 4353 (0x1101)
Идентификатор меню : 1 (0x1)
Формат : AC-3
Формат/Информация : Audio Coding 3
Коммерческое название : Dolby Digital
Идентификатор кодека : 129
Продолжительность : 55 м. 44 с.
Вид битрейта : Постоянный
Битрейт : 448 Кбит/сек
Каналы : 6 каналов
Channel layout : L R C LFE Ls Rs
Частота : 48,0 КГц
Частота кадров : 31,250 кадров/сек (1536 SPF)
Метод сжатия : С потерями
Размер потока : 179 Мбайт (1%)
Service kind : Complete Main

Аудио #3
Идентификатор : 4354 (0x1102)
Идентификатор меню : 1 (0x1)
Формат : PCM
Настройки формата : Big / Signed
Режим смешивания : Blu-ray
Идентификатор кодека : 128
Продолжительность : 55 м. 44 с.
Вид битрейта : Постоянный
Битрейт : 2 304 Кбит/сек
Каналы : 2 канала
Channel layout : L R
Частота : 48,0 КГц
Битовая глубина : 24 бит
Размер потока : 919 Мбайт (6%)
Any questions - support@pro-jazz.com.
Есть вопросы - support@pro-jazz.com
191
Нет комментариев. Ваш будет первым!