Вы используете незарегистрированную версию компонента "Вкладки"!

Поиск

2005 Roman Schmidt - Besame Mucho [SD]

2005 Roman Schmidt - Besame Mucho [SD]
Описание:

Этот музыкальный фильм посвящен истории одной песни — «BESAME MUCHO» Консуэло Веласкес. Песня была написана в 1941 году и на сегодняшний день является самой популярной во всем мире.В фильме принимают участие современные исполнители разных жанров: Лолита Милявская, Николай Басков, Игорь Бутман, Виктор Зинчук и другие — а также известные танцевальные коллективы.
Доп. информация: Ведущие: Елена Ханга, Дана Борисова

Дата/Год выпуска: 2005
Страна: Россия
Жанр: документальный фильм
Продолжительность: 00:27:35
Перевод: Не требуется
Русские субтитры: нет
Режиссер: Роман Шмидт
Телеканал: Ретро

Качество: DVB
Формат: MPG
Видео: MPEG2, 720x576 (4:3), 2639 Кбит/сек, 25,000 кадров/сек ,(0.255 bit/pixel)
Аудио: MP2, 192 Кбит/сек, 48,0 КГц, 2 канала

Отчёт DVDInfo/MediaInfo/BDInfo
Общее
Полное имя : C:\Users\Вадим\Desktop\Программы\РАЗДАЧИ ФАЙЛОВ\Бесаме мучо\Бесаме мучо.mpg
Формат : MPEG-PS
Размер файла : 570 Мбайт
Продолжительность : 27 м.
Режим общего битрейта : Переменный
Общий поток : 2888 Кбит/сек

Видео
Идентификатор : 224 (0xE0)
Формат : MPEG Video
Версия формата : Version 2
Профиль формата : Main@Main
Параметр BVOP формата : Да
Параметр матрицы формата : Выборочная
Параметр GOP формата : M=3, N=12
Структура изображения : Frame
Продолжительность : 27 м.
Вид битрейта : Переменный
Битрейт : 2639 Кбит/сек
Максимальный битрейт : 10000 Кбит/сек
Ширина : 720 пикселей
Высота : 576 пикселей
Соотношение сторон : 4:3
Частота кадров : 25,000 кадров/сек
Стандарт вещания : PAL
Цветовое пространство : YUV
Субдискретизация насыщенности : 4:2:0
Битовая глубина : 8 бит
Тип развёртки : Чересстрочная
Порядок развёртки : Верхнее поле первое
Метод сжатия : С потерями
Бит/(Пиксели*Кадры) : 0.255
Временной код первого кадра : 00:00:00:00
Оригинал временного кода : Group of pictures header
GOP, открыто/закрыто : Открыто
GOP, открыто/закрыто на первом кадре : Закрыто
Размер потока : 521 Мбайт (91%)

Аудио
Идентификатор : 192 (0xC0)
Формат : MPEG Audio
Версия формата : Version 1
Профиль формата : Layer 2
Продолжительность : 27 м.
Вид битрейта : Постоянный
Битрейт : 192 Кбит/сек
Каналы : 2 канала
Частота : 48,0 КГц
Метод сжатия : С потерями
Задержка видео : 6 мс.
Размер потока : 37,9 Мбайт (7%)
Скриншоты видео
2005 Roman Schmidt - Besame Mucho [SD] 02005 Roman Schmidt - Besame Mucho [SD] 12005 Roman Schmidt - Besame Mucho [SD] 22005 Roman Schmidt - Besame Mucho [SD] 32005 Roman Schmidt - Besame Mucho [SD] 42005 Roman Schmidt - Besame Mucho [SD] 52005 Roman Schmidt - Besame Mucho [SD] 62005 Roman Schmidt - Besame Mucho [SD] 72005 Roman Schmidt - Besame Mucho [SD] 82005 Roman Schmidt - Besame Mucho [SD] 92005 Roman Schmidt - Besame Mucho [SD] 10
Any questions - support@pro-jazz.com.
Есть вопросы - support@pro-jazz.com
519
Нет комментариев. Ваш будет первым!