Поиск

2004 Steve Turre Quartet - at The New Morning [HDTV 1080p]

2004 Steve Turre Quartet - at The New Morning [HDTV 1080p]
Стиль:
Дата проведения концерта (записи):
15 сентября 2004
Место проведения:
New Morning, Paris, France
Время звучания:
00:59:36
Главы (разбивка по трекам):
нет
Качество:
HDTV
Контейнер:
MP4
Состав:
  • Steve Turre (trombone, coquillages)
  • Ronnie Matthews (piano)
  • Gerald Cannon (contrebasse)
  • Dion Parson (batterie)
Треклист:

1. Motivation
2. Steve's Blues
3. The nearness of you
4. Shorty
5. All Blues

Видео:
AVC (h.264) / 1920x1080 / progressive / 16:9 / 9 785 kbps / 25.00 fps
Аудио#1:
AAC LC / 128-384 kbps / variable / 48kHz / 2ch stereo
Дополнительная информация:

This video is available on our DC++ hub: dc.pro-jazz.com
Это видео доступно на нашем DC++ хабе: dc.pro-jazz.com

Отчёт DVDInfo/MediaInfo/BDInfo
Полное имя : G:\DVD\Steve Turre Quartet - LaTNM 2004\Steve Turre Quartet - Live at The New Morning.mp4
Формат : MPEG-4
Профиль формата : Base Media / Version 2
Идентификатор кодека : mp42
Размер файла : 4,24 Гбайт
Продолжительность : 59 м.
Общий поток : 10,2 Мбит/сек
Дата кодирования : UTC 2014-01-21 06:27:38
Дата пометки : UTC 2014-01-21 06:27:38
Видео
Идентификатор : 2
Формат : AVC
Формат/Информация : Advanced Video Codec
Профиль формата : Main@L4.1
Параметр CABAC формата : Да
Параметр ReFrames формата : 2 кадра
Идентификатор кодека : avc1
Идентификатор кодека/Информация : Advanced Video Coding
Продолжительность : 59 м.
Вид битрейта : Переменный
Битрейт : 9785 Кбит/сек
Максимальный битрейт : 10,0 Мбит/сек
Ширина : 1920 пикселей
Высота : 1088 пикселей
Высота оригинала : 1080 пикселей
Соотношение сторон : 16:9
Соотношение сторон в оригинале : 16:9
Режим частоты кадров : Постоянный
Частота кадров : 25,000 кадров/сек
Частота кадров в оригинале : 12,500 кадров/сек
Цветовое пространство : YUV
Субдискретизация насыщенности : 4:2:0
Битовая глубина : 8 бит
Тип развёртки : Прогрессивная
Бит/(Пиксели*Кадры) : 0.187
Размер потока : 4,07 Гбайт (96%)
Язык : English
Дата кодирования : UTC 2014-01-21 06:27:38
Дата пометки : UTC 2014-01-21 06:27:38
Аудио
Идентификатор : 1
Формат : AAC
Формат/Информация : Advanced Audio Codec
Профиль формата : LC
Идентификатор кодека : 40
Продолжительность : 59 м.
Вид битрейта : Постоянный
Битрейт : 384 Кбит/сек
Номинальный битрейт : 128 Кбит/сек
Каналы : 2 канала
Расположение каналов : Front: L R
Частота : 48,0 КГц
Метод сжатия : С потерями
Размер потока : 164 Мбайт (4%)
Язык : English
Дата кодирования : UTC 2014-01-21 06:27:38
Дата пометки : UTC 2014-01-21 06:27:38
Any questions - support@pro-jazz.com
To become a power user - read FAQ.
125
Нет комментариев. Ваш будет первым!