Поиск

2004 Barry White - The Man And His Music featuring Love Unlimited (2012) [BDRip 1080p]

2004 Barry White - The Man And His Music featuring Love Unlimited (2012) [BDRip 1080p]
Стиль:
Дата издания диска (записи):
2 апреля 2012
Время звучания:
01:02:27
Главы (разбивка по трекам):
есть
Качество:
BDRip
Контейнер:
MKV
Состав:
  • Barry White
  • Glodean James
  • Linda James
  • Diane Taylor
Треклист:

01. Never Gonna Give You Up
02. What Am I Gonna Do With You Baby The Legendary
03. Playing Your Game Baby Barry White
04. I m Under The Influence Of Love //
05. You See The Trouble With Me The Man And His Music
06. You re The First,The Last,My Everything Feat. Love Unlimited!
07. I Wanna Do It Good For Ya //
08. It May Be Winter Outside REMASTERED
09. Just The Way You Are 2k12
10. Can t Get Enough Of Your Love Babe
11. Let The Music Play
12. I Belong To You
13. Love Theme

Видео:
AVC, 1296x1080, 1,2:1, 12.1 Mbps, 25 fps
Аудио#1:
AC3, 448 Kbps, 48 kHz, 6ch
Дополнительная информация:

Год выпуска: 2004/2012
Лейбл: Powerstatiom
Видео кодек: H.264
Аудио кодек: AC3

Отчёт DVDInfo/MediaInfo/BDInfo
General
Unique ID : 224995643898398931418934488292171446851 (0xA94495B5104882FF989B48695CCBFA43)
Complete name : H:\Barry.White.The.Man.And.His.Music.2012.1080p.MBluRay.x264-LOUNGE\Barry.White.The.Man.And.His.Music.2012.1080p.mkv
Format : Matroska
Format version : Version 2
File size : 5.47 GiB
Duration : 1h 2mn
Overall bit rate : 12.5 Mbps
Encoded date : UTC 2012-07-27 15:44:15
Writing application : mkvmerge v5.3.0 ('I could have danced') built on Feb 9 2012 10:38:07
Writing library : libebml v1.2.3 + libmatroska v1.3.0

Video
ID : 1
Format : AVC
Format/Info : Advanced Video Codec
Format profile : High@L4.1
Format settings, CABAC : Yes
Format settings, ReFrames : 4 frames
Codec ID : V_MPEG4/ISO/AVC
Duration : 1h 2mn
Bit rate : 12.1 Mbps
Width : 1 296 pixels
Height : 1 080 pixels
Display aspect ratio : 1.200
Frame rate : 25.000 fps
Color space : YUV
Chroma subsampling : 4:2:0
Bit depth : 8 bits
Scan type : Progressive
Bits/(Pixel*Frame) : 0.345
Stream size : 5.16 GiB (94%)
Writing library : x264 core 125 r2208 d9d2288
Encoding settings : cabac=1 / ref=4 / deblock=1:0:0 / analyse=0x3:0x133 / me=umh / subme=8 / psy=1 / psy_rd=1.00:0.00 / mixed_ref=1 / me_range=16 / chroma_me=1 / trellis=1 / 8x8dct=1 / cqm=0 / deadzone=21,11 / fast_pskip=0 / chroma_qp_offset=-2 / threads=6 / lookahead_threads=1 / sliced_threads=0 / nr=0 / decimate=1 / interlaced=0 / bluray_compat=0 / constrained_intra=0 / bframes=3 / b_pyramid=2 / b_adapt=1 / b_bias=0 / direct=1 / weightb=1 / open_gop=0 / weightp=2 / keyint=250 / keyint_min=25 / scenecut=40 / intra_refresh=0 / rc_lookahead=40 / rc=2pass / mbtree=1 / bitrate=12084 / ratetol=1.0 / qcomp=0.60 / qpmin=0 / qpmax=69 / qpstep=4 / cplxblur=20.0 / qblur=0.5 / ip_ratio=1.40 / aq=1:1.00
Language : English
Default : Yes
Forced : No

Audio
ID : 2
Format : AC-3
Format/Info : Audio Coding 3
Mode extension : CM (complete main)
Format settings, Endianness : Big
Codec ID : A_AC3
Duration : 1h 2mn
Bit rate mode : Constant
Bit rate : 448 Kbps
Channel(s) : 6 channels
Channel positions : Front: L C R, Side: L R, LFE
Sampling rate : 48.0 KHz
Bit depth : 16 bits
Compression mode : Lossy
Stream size : 200 MiB (4%)
Default : Yes
Forced : No

Menu
00:00:00.000 : en:00:00:00.000
00:05:22.640 : en:00:05:22.640
00:08:01.520 : en:00:08:01.520
00:13:09.200 : en:00:13:09.200
00:17:09.680 : en:00:17:09.680
00:21:35.120 : en:00:21:35.120
00:25:38.960 : en:00:25:38.960
00:30:51.440 : en:00:30:51.440
00:35:03.920 : en:00:35:03.920
00:45:00.560 : en:00:45:00.560
00:50:19.760 : en:00:50:19.760
00:55:51.440 : en:00:55:51.440
00:59:43.280 : en:00:59:43.280
Скриншоты видео
2004 Barry White - The Man And His Music featuring Love Unlimited (2012) [BDRip 1080p] 02004 Barry White - The Man And His Music featuring Love Unlimited (2012) [BDRip 1080p] 12004 Barry White - The Man And His Music featuring Love Unlimited (2012) [BDRip 1080p] 22004 Barry White - The Man And His Music featuring Love Unlimited (2012) [BDRip 1080p] 32004 Barry White - The Man And His Music featuring Love Unlimited (2012) [BDRip 1080p] 42004 Barry White - The Man And His Music featuring Love Unlimited (2012) [BDRip 1080p] 52004 Barry White - The Man And His Music featuring Love Unlimited (2012) [BDRip 1080p] 62004 Barry White - The Man And His Music featuring Love Unlimited (2012) [BDRip 1080p] 72004 Barry White - The Man And His Music featuring Love Unlimited (2012) [BDRip 1080p] 82004 Barry White - The Man And His Music featuring Love Unlimited (2012) [BDRip 1080p] 9
По всем вопросам пишите личное сообщение пользователю M0p94ok.
447
Нет комментариев. Ваш будет первым!